<?xml version="1.0" standalone="no"?>
<!DOCTYPE svg PUBLIC "-//W3C//DTD SVG 1.1//EN" "http://www.w3.org/Graphics/SVG/1.1/DTD/svg11.dtd" >
<svg xmlns="http://www.w3.org/2000/svg" xmlns:xlink="http://www.w3.org/1999/xlink" version="1.1">
<metadata>
Created by FontForge 20190801 at Thu Oct 27 08:39:46 2016
 By www-data
2016 Copyright Webme GmbH
</metadata>
<defs>
<font id="Gotham_Bold" horiz-adv-x="500" >
  <font-face 
    font-family="Gotham_Bold"
    font-weight="400"
    font-stretch="normal"
    units-per-em="1000"
    panose-1="0 0 0 0 0 0 0 0 0 0"
    ascent="800"
    descent="-200"
    x-height="536"
    cap-height="700"
    bbox="-71 -173 1195 932"
    underline-thickness="20"
    underline-position="-133"
    unicode-range="U+0020-FB02"
  />
<missing-glyph 
 />
    <glyph glyph-name=".notdef" 
 />
    <glyph glyph-name=".null" horiz-adv-x="0" 
 />
    <glyph glyph-name="nonmarkingreturn" horiz-adv-x="333" 
 />
    <glyph glyph-name="space" unicode=" " horiz-adv-x="300" 
 />
    <glyph glyph-name="exclam" unicode="!" horiz-adv-x="324" 
d="M95 665q0 14 11 23.5t28 9.5h61q16 0 27 -9.5t11 -23.5v-31h-138v31zM95 615h138v-266h-138v266zM141 378v213h-16v-213h16zM172 378v213h-16v-213h16zM202 378v213h-15v-213h15zM96 331h135l-36 -60h-62zM141 251h44l-21 -37zM81 160h162v-160h-162v160z" />
    <glyph glyph-name="quotedbl" unicode="&#x22;" horiz-adv-x="520" 
d="M243 700v-5l-109 -314h-77l18 319h168zM479 700v-5l-109 -314h-77l18 319h168z" />
    <glyph glyph-name="numbersign" unicode="#" horiz-adv-x="700" 
d="M542 278h88v-128h-110l-26 -150h-132l26 150h-145l-26 -150h-132l26 150h-76v128h98l25 148h-88v128h110l25 146h132l-25 -146h145l25 146h132l-25 -146h76v-128h-98zM265 278h145l25 148h-145z" />
    <glyph glyph-name="dollar" unicode="$" horiz-adv-x="646" 
d="M538.5 64.5q-57.5 -52.5 -154.5 -63.5v-99h-104v101q-64 8 -125 32.5t-111 62.5l78 114q43 -33 82 -52.5t81 -28.5v159q-112 30 -163.5 78.5t-51.5 134.5q0 82 57 134.5t153 62.5v58h104v-60q101 -14 186 -74l-67 -117q-64 43 -124 59v-151q114 -31 165.5 -81.5
t51.5 -134.5q0 -82 -57.5 -134.5zM233 553.5q-17 -16.5 -17 -41.5t15 -41.5t54 -30.5v135q-35 -5 -52 -21.5zM434.5 234q-15.5 17 -55.5 32v-140q71 11 71 65q0 26 -15.5 43z" />
    <glyph glyph-name="percent" unicode="%" horiz-adv-x="860" 
d="M363.5 439q-21.5 -41 -60.5 -65t-89 -24q-49 0 -87.5 23.5t-60 64.5t-21.5 90q0 50 21.5 91t60.5 65t89 24q49 0 87.5 -23.5t60 -64.5t21.5 -90q0 -50 -21.5 -91zM115 0l511 700h119l-511 -700h-119zM261.5 591q-18.5 26 -47.5 26q-30 0 -47 -25t-17 -62t18.5 -63
t47.5 -26q30 0 47 25t17 62t-18.5 63zM793.5 81q-21.5 -41 -60.5 -65t-89 -24q-49 0 -87.5 23.5t-60 64.5t-21.5 90q0 50 21.5 91t60.5 65t89 24q49 0 87.5 -23.5t60 -64.5t21.5 -90q0 -50 -21.5 -91zM691.5 233q-18.5 26 -47.5 26q-30 0 -47 -25t-17 -62t18.5 -63t47.5 -26
q30 0 47 25t17 62t-18.5 63z" />
    <glyph glyph-name="ampersand" unicode="&#x26;" horiz-adv-x="696" 
d="M474 68q-95 -78 -205 -78q-67 0 -120.5 25t-84 71t-30.5 107q0 131 136 193q-26 37 -37.5 70.5t-11.5 70.5q0 49 25.5 91.5t73.5 68t113 25.5q58 0 103 -23t69.5 -63.5t24.5 -90.5q0 -68 -38.5 -112.5t-108.5 -71.5l93 -93q33 52 68 120l113 -62q-52 -94 -92 -148
l103 -103l-113 -79zM378 574.5q-18 17.5 -48 17.5q-31 0 -49.5 -20t-18.5 -52q0 -23 9.5 -43t31.5 -45q48 18 70.5 39.5t22.5 54.5q0 31 -18 48.5zM205 251q-16 -24 -16 -52q0 -37 27.5 -60t70.5 -23q50 0 101 40l-134 136q-33 -17 -49 -41z" />
    <glyph glyph-name="quotesingle" unicode="'" horiz-adv-x="286" 
d="M245 700v-5l-109 -314h-79l18 319h170z" />
    <glyph glyph-name="parenleft" unicode="(" horiz-adv-x="445" 
d="M255.5 467.5q-45.5 -75.5 -45.5 -180.5t45.5 -180.5t147.5 -146.5l-67 -101q-139 76 -208 180.5t-69 247.5t69 247.5t208 180.5l67 -101q-102 -71 -147.5 -146.5z" />
    <glyph glyph-name="parenright" unicode=")" horiz-adv-x="445" 
d="M317 39.5q-69 -104.5 -208 -180.5l-67 101q102 71 147.5 146.5t45.5 180.5t-45.5 180.5t-147.5 146.5l67 101q139 -76 208 -180.5t69 -247.5t-69 -247.5z" />
    <glyph glyph-name="asterisk" unicode="*" horiz-adv-x="430" 
d="M240 492l16 -120h-82l16 120l-97 -74l-42 72l112 47l-112 47l42 72l97 -74l-16 120h82l-16 -120l97 74l42 -72l-112 -47l112 -47l-42 -72z" />
    <glyph glyph-name="plus" unicode="+" horiz-adv-x="640" 
d="M391 601v-180h181v-138h-181v-180h-142v180h-181v138h181v180h142z" />
    <glyph glyph-name="comma" unicode="," horiz-adv-x="286" 
d="M103 -68.5q25 25.5 21 68.5h-62v160h162v-135q0 -96 -46.5 -140.5t-138.5 -46.5l-13 63q52 5 77 30.5z" />
    <glyph glyph-name="hyphen" unicode="-" horiz-adv-x="408" 
d="M50 383h308v-146h-308v146z" />
    <glyph glyph-name="period" unicode="." horiz-adv-x="286" 
d="M62 160h162v-160h-162v160z" />
    <glyph glyph-name="slash" unicode="/" horiz-adv-x="530" 
d="M101 -128h-129l443 926h129z" />
    <glyph glyph-name="zero" unicode="0" horiz-adv-x="730" 
d="M637 166.5q-39 -82.5 -110 -130.5t-163 -48t-162.5 47.5t-109 129.5t-38.5 184t39 184.5t110 130.5t163 48t162.5 -47.5t109 -129.5t38.5 -184t-39 -184.5zM499 464q-19 51 -54 80t-81 29t-80.5 -28.5t-53 -79t-18.5 -114.5t19 -115t54 -80t81 -29t80.5 28.5t53 79
t18.5 114.5t-19 115z" />
    <glyph glyph-name="one" unicode="1" horiz-adv-x="422" 
d="M330 705v-705h-152v549l-122 -30l-32 126l201 60h105z" />
    <glyph glyph-name="two" unicode="2" horiz-adv-x="623" 
d="M238.5 550.5q-31.5 -21.5 -72.5 -72.5l-108 87q55 75 113.5 110t147.5 35q74 0 128.5 -27t83.5 -76t29 -114q0 -57 -19.5 -100t-57.5 -80.5t-107 -91.5l-114 -88h305v-133h-518v122l233 191q69 57 95 91.5t26 76.5q0 43 -26 67t-68 24q-39 0 -70.5 -21.5z" />
    <glyph glyph-name="three" unicode="3" horiz-adv-x="621" 
d="M79 700h473v-116l-177 -169q83 -14 135.5 -60.5t52.5 -136.5q0 -66 -30.5 -118.5t-88 -82t-133.5 -29.5q-171 0 -273 121l106 101q38 -42 78 -63t91 -21q44 0 71.5 23.5t27.5 62.5q0 43 -35.5 66.5t-101.5 23.5h-64l-24 98l167 168h-275v132z" />
    <glyph glyph-name="four" unicode="4" horiz-adv-x="689" 
d="M545 276h94v-125h-94v-151h-147v151h-342l-25 109l384 445h130v-429zM212 276h186v218z" />
    <glyph glyph-name="five" unicode="5" horiz-adv-x="630" 
d="M540 700v-135h-298l-8 -121q48 12 92 12q110 0 177.5 -55.5t67.5 -169.5q0 -74 -33 -129t-93 -84.5t-140 -29.5q-81 0 -144.5 27t-117.5 78l93 111q42 -38 82 -57t85 -19q55 0 86 25.5t31 72.5q0 45 -33.5 70.5t-90.5 25.5q-56 0 -117 -26l-89 59l20 345h430z" />
    <glyph glyph-name="six" unicode="6" horiz-adv-x="662" 
d="M429.5 558.5q-31.5 13.5 -73.5 13.5q-62 0 -97.5 -44.5t-43.5 -117.5q32 21 65 33t80 12q71 0 126.5 -26t87.5 -76.5t32 -121.5t-35 -126t-96 -86t-136 -31q-67 0 -115.5 18.5t-86.5 56.5q-41 41 -62 103.5t-21 162.5q0 111 34 197.5t103 136t170 49.5q68 0 119 -19
t100 -58l-81 -119q-38 29 -69.5 42.5zM420 298.5q-33 28.5 -89 28.5t-88 -28t-32 -74q0 -47 33 -76t89 -29t88 28.5t32 75.5q0 46 -33 74.5z" />
    <glyph glyph-name="seven" unicode="7" horiz-adv-x="619" 
d="M572 700v-116l-314 -584h-174l313 567h-329v133h504z" />
    <glyph glyph-name="eight" unicode="8" horiz-adv-x="630" 
d="M550 86q-35 -47 -96 -71.5t-139 -24.5q-77 0 -138.5 25t-96.5 71.5t-35 106.5q0 63 28 103.5t85 66.5q-43 26 -66 63t-23 91t31 98t87 69.5t128 25.5t128 -25.5t87 -69.5t31 -98t-23 -91t-66 -63q57 -30 85 -68t28 -98q0 -64 -35 -111zM388 559q-27 24 -73 24t-73 -24
t-27 -58q0 -38 27.5 -62.5t72.5 -24.5t72.5 24t27.5 62q0 35 -27 59zM402.5 268.5q-33.5 23.5 -87.5 23.5t-87.5 -23.5t-33.5 -63.5q0 -38 32.5 -63t88.5 -25t88.5 25t32.5 63q0 40 -33.5 63.5z" />
    <glyph glyph-name="nine" unicode="9" horiz-adv-x="662" 
d="M572.5 169.5q-35.5 -86.5 -104 -134t-166.5 -47.5q-72 0 -127 21.5t-103 61.5l81 117q39 -32 74.5 -46t78.5 -14q62 0 98 43t44 116q-56 -48 -142 -48q-115 0 -182.5 60.5t-67.5 166.5q0 70 34 126t94.5 88t138.5 32q69 0 115.5 -18t86.5 -58t61.5 -103t21.5 -162
q0 -115 -35.5 -201.5zM418 550q-33 30 -90 30q-56 0 -87.5 -29.5t-31.5 -77.5t33 -77t89 -29t88 29t32 76q0 48 -33 78z" />
    <glyph glyph-name="colon" unicode=":" horiz-adv-x="296" 
d="M67 536h162v-160h-162v160zM67 160h162v-160h-162v160z" />
    <glyph glyph-name="semicolon" unicode=";" horiz-adv-x="296" 
d="M67 536h162v-160h-162v160zM108 -68.5q25 25.5 21 68.5h-62v160h162v-135q0 -96 -46.5 -140.5t-138.5 -46.5l-13 63q52 5 77 30.5z" />
    <glyph glyph-name="less" unicode="&#x3c;" horiz-adv-x="640" 
d="M552 492l-338 -139l338 -139v-143l-484 212v138l484 212v-141z" />
    <glyph glyph-name="equal" unicode="=" horiz-adv-x="640" 
d="M557 413h-474v138h474v-138zM557 153h-474v138h474v-138z" />
    <glyph glyph-name="greater" unicode="&#x3e;" horiz-adv-x="640" 
d="M88 212l338 139l-338 139v143l484 -212v-138l-484 -212v141z" />
    <glyph glyph-name="question" unicode="?" horiz-adv-x="544" 
d="M312.5 432q41.5 23 41.5 65q0 34 -24 53t-68 19q-81 0 -150 -69l-92 101q98 108 245 108q110 0 176 -54.5t66 -153.5q0 -89 -53 -136.5t-144 -65.5l-11 -61h-102l-23 162l5 5q92 4 133.5 27zM164 160h162v-160h-162v160z" />
    <glyph glyph-name="at" unicode="@" horiz-adv-x="980" 
d="M900.5 178.5q-26.5 -56.5 -71.5 -85t-101 -28.5q-55 0 -93 17t-60 43q-66 -60 -148 -60q-51 0 -93 23.5t-66 67.5t-24 102q0 69 31.5 126.5t83 91t109.5 33.5q88 0 138 -68l11 53l118 -19l-47 -269q-3 -15 -3 -31q0 -28 19.5 -45.5t53.5 -17.5q55 0 91 54t36 150
q0 92 -52 174t-142.5 132t-199.5 50q-111 0 -201.5 -53.5t-142.5 -145t-52 -199.5q0 -109 52 -200t144 -143.5t208 -52.5q72 0 129 16.5t116 50.5l20 -32q-60 -37 -125 -56t-140 -19q-125 0 -227 59t-160.5 159t-58.5 218t58.5 218.5t159 160t220.5 59.5q119 0 219.5 -55.5
t158.5 -147t58 -193.5q0 -81 -26.5 -137.5zM555 380q-26 26 -67 26q-32 0 -59.5 -18.5t-44 -51t-16.5 -71.5q0 -46 26 -71.5t68 -25.5q31 0 58.5 19t44 52t16.5 73q0 42 -26 68z" />
    <glyph glyph-name="A" unicode="A" horiz-adv-x="790" 
d="M541 157h-296l-64 -157h-157l300 705h142l300 -705h-161zM300 293h186l-93 227z" />
    <glyph glyph-name="B" unicode="B" horiz-adv-x="722" 
d="M609 49q-70 -49 -192 -49h-333v700h325q107 0 169 -49t62 -132v-2q0 -99 -92 -151q65 -25 98 -65t33 -107v-2q0 -94 -70 -143zM461 546.5q-26 18.5 -75 18.5h-152v-148h142q53 0 82 18t29 56v2q0 35 -26 53.5zM498 269q-28 20 -86 20h-178v-154h183q52 0 80.5 19t28.5 57
v2q0 36 -28 56z" />
    <glyph glyph-name="C" unicode="C" horiz-adv-x="738" 
d="M574.5 19.5q-66.5 -31.5 -162.5 -31.5q-101 0 -183 48t-129 130.5t-47 181.5v2q0 99 46.5 182t130 131.5t188.5 48.5q93 0 158 -27.5t118 -80.5l-98 -113q-43 39 -86 59t-93 20q-58 0 -104.5 -29.5t-72.5 -79t-26 -109.5v-2q0 -60 26 -110.5t72 -80t105 -29.5q56 0 97 20
t87 62l98 -99q-58 -62 -124.5 -93.5z" />
    <glyph glyph-name="D" unicode="D" horiz-adv-x="782" 
d="M681.5 172q-47.5 -80 -132 -126t-192.5 -46h-273v700h273q108 0 192.5 -45.5t132 -125t47.5 -177.5v-2q0 -98 -47.5 -178zM541.5 459q-26.5 48 -74.5 75t-110 27h-119v-422h119q62 0 110 26.5t74.5 74t26.5 108.5v2q0 61 -26.5 109z" />
    <glyph glyph-name="E" unicode="E" horiz-adv-x="670" 
d="M84 700h528v-137h-375v-142h330v-137h-330v-147h380v-137h-533v700z" />
    <glyph glyph-name="F" unicode="F" horiz-adv-x="656" 
d="M238 411h334v-140h-334v-271h-154v700h533v-140h-379v-149z" />
    <glyph glyph-name="G" unicode="G" horiz-adv-x="784" 
d="M421 -12q-107 0 -191 46.5t-130.5 128.5t-46.5 185v2q0 99 47.5 182t131.5 131.5t188 48.5q91 0 154 -23.5t121 -72.5l-97 -117q-44 37 -85 54t-98 17q-55 0 -101 -29.5t-73 -79.5t-27 -109v-2q0 -63 27 -114t75.5 -79.5t109.5 -28.5q87 0 145 42v100h-155v133h304v-304
q-131 -111 -299 -111z" />
    <glyph glyph-name="H" unicode="H" horiz-adv-x="760" 
d="M522 281h-284v-281h-154v700h154v-277h284v277h154v-700h-154v281z" />
    <glyph glyph-name="I" unicode="I" horiz-adv-x="336" 
d="M91 700h154v-700h-154v700z" />
    <glyph glyph-name="J" unicode="J" horiz-adv-x="564" 
d="M424.5 54q-66.5 -64 -181.5 -64q-141 0 -229 105l97 108q32 -35 62.5 -52.5t65.5 -17.5q45 0 69.5 28.5t24.5 87.5v451h158v-458q0 -124 -66.5 -188z" />
    <glyph glyph-name="K" unicode="K" horiz-adv-x="730" 
d="M319 298l-81 -84v-214h-154v700h154v-306l284 306h186l-285 -297l298 -403h-185z" />
    <glyph glyph-name="L" unicode="L" horiz-adv-x="619" 
d="M84 700h154v-560h349v-140h-503v700z" />
    <glyph glyph-name="M" unicode="M" horiz-adv-x="868" 
d="M631 457l-197 -299h-4l-195 296v-454h-151v700h166l184 -296l184 296h166v-700h-153v457z" />
    <glyph glyph-name="N" unicode="N" horiz-adv-x="790" 
d="M236 445v-445h-152v700h142l328 -431v431h152v-700h-131z" />
    <glyph glyph-name="O" unicode="O" horiz-adv-x="850" 
d="M748.5 168q-48.5 -83 -133.5 -131.5t-191 -48.5t-190.5 48t-132.5 130.5t-48 181.5v2q0 99 48.5 182t133.5 131.5t191 48.5t190.5 -48t132.5 -130.5t48 -181.5v-2q0 -99 -48.5 -182zM608.5 460.5q-27.5 50.5 -75.5 80t-109 29.5t-108.5 -29t-74.5 -79t-27 -110v-2
q0 -60 27.5 -110.5t75.5 -80t109 -29.5t108.5 29t74.5 79t27 110v2q0 60 -27.5 110.5z" />
    <glyph glyph-name="P" unicode="P" horiz-adv-x="668" 
d="M600.5 322q-37.5 -56 -101.5 -84t-144 -28h-117v-210h-154v700h286q82 0 142.5 -30.5t93 -85.5t32.5 -126v-2q0 -78 -37.5 -134zM449 533.5q-33 27.5 -92 27.5h-119v-214h122q56 0 89 30t33 76v2q0 51 -33 78.5z" />
    <glyph glyph-name="Q" unicode="Q" horiz-adv-x="850" 
d="M632 48q-93 -60 -208 -60q-106 0 -190.5 48t-132.5 130.5t-48 181.5v2q0 99 48.5 182t133.5 131.5t191 48.5t190.5 -48t132.5 -130.5t48 -181.5v-2q0 -55 -16 -106t-46 -95l72 -61l-98 -109zM608.5 460.5q-27.5 50.5 -75.5 80t-109 29.5t-108.5 -29t-74.5 -79t-27 -110
v-2q0 -60 27.5 -110.5t75.5 -80t109 -29.5q49 0 92 19l-114 97l98 110l115 -104q19 42 19 96v2q0 60 -27.5 110.5z" />
    <glyph glyph-name="R" unicode="R" horiz-adv-x="723" 
d="M359 224h-121v-224h-154v700h320q124 0 194 -61.5t70 -169.5v-2q0 -82 -40 -136.5t-110 -80.5l171 -250h-180zM480 535.5q-32 25.5 -89 25.5h-153v-201h156q55 0 86.5 27t31.5 72v2q0 49 -32 74.5z" />
    <glyph glyph-name="S" unicode="S" horiz-adv-x="640" 
d="M519.5 47.5q-70.5 -57.5 -186.5 -57.5q-81 0 -158 28.5t-139 83.5l91 109q50 -41 101 -63t108 -22q47 0 74 17.5t27 48.5v2q0 21 -11 35t-41.5 26.5t-88.5 27.5q-80 21 -128.5 43.5t-76 63t-27.5 107.5v2q0 63 31.5 110.5t87 74t126.5 26.5q149 0 260 -89l-80 -116
q-99 69 -182 69q-43 0 -66.5 -17t-23.5 -44v-2q0 -23 12.5 -37.5t43.5 -26.5t95 -28q114 -30 168 -76.5t54 -133.5v-2q0 -102 -70.5 -159.5z" />
    <glyph glyph-name="T" unicode="T" horiz-adv-x="648" 
d="M401 0h-154v558h-213v142h580v-142h-213v-558z" />
    <glyph glyph-name="U" unicode="U" horiz-adv-x="756" 
d="M601.5 69q-81.5 -80 -225.5 -80q-143 0 -223 79.5t-80 231.5v400h154v-396q0 -84 39.5 -128.5t111.5 -44.5t111.5 43t39.5 125v401h154v-395q0 -156 -81.5 -236z" />
    <glyph glyph-name="V" unicode="V" horiz-adv-x="750" 
d="M307 -5l-283 705h170l183 -493l183 493h166l-283 -705h-136z" />
    <glyph glyph-name="W" unicode="W" horiz-adv-x="1122" 
d="M719 -5l-158 458l-158 -458h-134l-239 705h165l145 -474l157 476h132l157 -476l145 474h161l-239 -705h-134z" />
    <glyph glyph-name="X" unicode="X" horiz-adv-x="732" 
d="M364 240l-158 -240h-175l244 356l-234 344h180l147 -227l148 227h175l-234 -342l244 -358h-180z" />
    <glyph glyph-name="Y" unicode="Y" horiz-adv-x="716" 
d="M435 0h-154v276l-269 424h180l167 -281l170 281h175l-269 -421v-279z" />
    <glyph glyph-name="Z" unicode="Z" horiz-adv-x="708" 
d="M63 117l385 448h-373v135h571v-117l-385 -448h385v-135h-583v117z" />
    <glyph glyph-name="bracketleft" unicode="[" horiz-adv-x="465" 
d="M229 581v-592h177v-119h-323v830h323v-119h-177z" />
    <glyph glyph-name="backslash" unicode="\" horiz-adv-x="530" 
d="M429 -128l-443 926h129l443 -926h-129z" />
    <glyph glyph-name="bracketright" unicode="]" horiz-adv-x="465" 
d="M382 -130h-323v119h177v592h-177v119h323v-830z" />
    <glyph glyph-name="asciicircum" unicode="^" 
d="M50 493l148 207h104l148 -207h-110l-91 117l-91 -117h-108z" />
    <glyph glyph-name="underscore" unicode="_" horiz-adv-x="600" 
d="M602 -160h-604v116h604v-116z" />
    <glyph glyph-name="grave" unicode="`" 
d="M110 715l131 57l113 -177h-116z" />
    <glyph glyph-name="a" unicode="a" horiz-adv-x="592" 
d="M382 58q-61 -68 -162 -68q-79 0 -131.5 43.5t-52.5 120.5v2q0 85 58.5 128t157.5 43q67 0 131 -22v9q0 48 -29 73t-86 25q-41 0 -74.5 -7t-73.5 -22l-38 116q49 22 96.5 32.5t111.5 10.5q122 0 180.5 -59.5t58.5 -171.5v-311h-147v58zM288 236q-49 0 -77 -19t-28 -55v-2
q0 -30 23 -47.5t60 -17.5q53 0 86 26.5t33 67.5v27q-43 20 -97 20z" />
    <glyph glyph-name="b" unicode="b" horiz-adv-x="675" 
d="M597.5 118q-33.5 -63 -89.5 -95.5t-121 -32.5q-56 0 -96 21.5t-71 58.5v-70h-152v730h152v-271q64 87 167 87q64 0 120 -32.5t90 -95.5t34 -149v-2q0 -86 -33.5 -149zM461.5 346q-17.5 34 -47.5 52.5t-66 18.5t-65.5 -18.5t-47 -52.5t-17.5 -77v-2q0 -43 17.5 -77
t47 -52.5t65.5 -18.5t66 18.5t47.5 52t17.5 77.5v2q0 43 -17.5 77z" />
    <glyph glyph-name="c" unicode="c" horiz-adv-x="571" 
d="M446 13q-50 -25 -125 -25q-79 0 -142.5 37t-100 100.5t-36.5 139.5v2q0 76 36 140t100.5 101.5t144.5 37.5q73 0 123.5 -23t90.5 -67l-93 -100q-28 30 -56 44.5t-66 14.5q-37 0 -66.5 -20t-46.5 -53.5t-17 -72.5v-2q0 -63 37.5 -105.5t98.5 -42.5q36 0 64.5 14t58.5 43
l89 -90q-44 -48 -94 -73z" />
    <glyph glyph-name="d" unicode="d" horiz-adv-x="675" 
d="M455 77q-64 -87 -167 -87q-64 0 -120 32.5t-90 95.5t-34 149v2q0 86 33.5 149t89.5 95.5t121 32.5q56 0 96 -21.5t71 -58.5v264h152v-730h-152v77zM439.5 346q-17.5 34 -47 52.5t-65.5 18.5t-66 -18.5t-47.5 -52t-17.5 -77.5v-2q0 -43 17.5 -77t47.5 -52.5t66 -18.5
t65.5 18.5t47 52.5t17.5 77v2q0 43 -17.5 77z" />
    <glyph glyph-name="e" unicode="e" horiz-adv-x="613" 
d="M566 215h-373q11 -51 45 -78t86 -27q38 0 68 13t62 42l87 -77q-81 -100 -219 -100q-80 0 -143.5 35t-100 98t-36.5 144v2q0 76 34 140t94.5 101.5t136.5 37.5q86 0 144.5 -40t87.5 -106t29 -145v-2q0 -10 -2 -38zM383.5 393q-29.5 31 -76.5 31q-46 0 -76.5 -30.5
t-39.5 -83.5h229q-7 52 -36.5 83z" />
    <glyph glyph-name="f" unicode="f" horiz-adv-x="382" 
d="M299 609q-55 0 -55 -58v-21h123v-124h-121v-406h-152v406h-63v125h63v34q0 172 166 172q61 0 108 -15v-126q-36 13 -69 13z" />
    <glyph glyph-name="g" unicode="g" horiz-adv-x="675" 
d="M533.5 -95q-73.5 -67 -225.5 -67q-131 0 -237 56l52 114q43 -24 86.5 -36.5t94.5 -12.5q153 0 153 146v26q-36 -44 -76.5 -65.5t-98.5 -21.5q-64 0 -118.5 30t-87 86.5t-32.5 133.5v2q0 77 33 133.5t87.5 86.5t117.5 30q58 0 98 -21t75 -59v70h152v-415
q0 -149 -73.5 -216zM419.5 385q-37.5 35 -93.5 35t-93 -35t-37 -89v-2q0 -55 37 -89.5t93 -34.5t93.5 35t37.5 89v2q0 54 -37.5 89z" />
    <glyph glyph-name="h" unicode="h" horiz-adv-x="623" 
d="M407 299q0 53 -24 81t-68 28t-69.5 -28t-25.5 -81v-299h-152v730h152v-270q31 40 67.5 63t89.5 23q86 0 134 -53t48 -146v-347h-152v299z" />
    <glyph glyph-name="i" unicode="i" horiz-adv-x="302" 
d="M71 730h160v-135h-160v135zM75 536h152v-536h-152v536z" />
    <glyph glyph-name="j" unicode="j" horiz-adv-x="302" 
d="M71 730h160v-135h-160v135zM55 -163q-35 0 -66 6v119q18 -3 32 -3q54 0 54 62v515h152v-527q0 -172 -172 -172z" />
    <glyph glyph-name="k" unicode="k" horiz-adv-x="592" 
d="M273 219l-53 -56v-163h-152v730h152v-389l178 195h182l-204 -211l211 -325h-174z" />
    <glyph glyph-name="l" unicode="l" horiz-adv-x="302" 
d="M75 730h152v-730h-152v730z" />
    <glyph glyph-name="m" unicode="m" horiz-adv-x="950" 
d="M734 299q0 54 -23 81.5t-66 27.5t-67.5 -28t-24.5 -81v-299h-152v299q0 54 -23 81.5t-66 27.5t-67.5 -28t-24.5 -81v-299h-152v536h152v-76q31 40 68 63t90 23q52 0 91 -22t60 -63q73 85 176 85q86 0 133.5 -50.5t47.5 -146.5v-349h-152v299z" />
    <glyph glyph-name="n" unicode="n" horiz-adv-x="623" 
d="M407 299q0 53 -24 81t-68 28t-69.5 -28t-25.5 -81v-299h-152v536h152v-76q31 40 67.5 63t89.5 23q86 0 134 -53t48 -146v-347h-152v299z" />
    <glyph glyph-name="o" unicode="o" horiz-adv-x="664" 
d="M584 127q-38 -64 -104.5 -101.5t-148.5 -37.5q-81 0 -147.5 37t-104 100.5t-37.5 139.5v2q0 76 38 140t104.5 101.5t148.5 37.5q81 0 147.5 -37t104 -100.5t37.5 -139.5v-2q0 -76 -38 -140zM454 340.5q-18 33.5 -50 54t-73 20.5q-63 0 -101 -42t-38 -104v-2
q0 -40 18 -73.5t50 -54t73 -20.5q63 0 101 42t38 104v2q0 40 -18 73.5z" />
    <glyph glyph-name="p" unicode="p" horiz-adv-x="675" 
d="M597.5 118q-33.5 -63 -89.5 -95.5t-121 -32.5q-56 0 -96 21.5t-71 58.5v-230h-152v696h152v-77q64 87 167 87q64 0 120 -32.5t90 -95.5t34 -149v-2q0 -86 -33.5 -149zM461.5 346q-17.5 34 -47.5 52.5t-66 18.5t-65.5 -18.5t-47 -52.5t-17.5 -77v-2q0 -43 17.5 -77
t47 -52.5t65.5 -18.5t66 18.5t47.5 52t17.5 77.5v2q0 43 -17.5 77z" />
    <glyph glyph-name="q" unicode="q" horiz-adv-x="675" 
d="M455 77q-64 -87 -167 -87q-64 0 -120 32.5t-90 95.5t-34 149v2q0 86 33.5 149t89.5 95.5t121 32.5q56 0 96 -21.5t71 -58.5v70h152v-696h-152v237zM439.5 346q-17.5 34 -47 52.5t-65.5 18.5t-66 -18.5t-47.5 -52t-17.5 -77.5v-2q0 -43 17.5 -77t47.5 -52.5t66 -18.5
t65.5 18.5t47 52.5t17.5 77v2q0 43 -17.5 77z" />
    <glyph glyph-name="r" unicode="r" horiz-adv-x="418" 
d="M262.5 339.5q-42.5 -47.5 -42.5 -141.5v-198h-152v536h152v-108q25 59 66 90t105 28v-159h-8q-78 0 -120.5 -47.5z" />
    <glyph glyph-name="s" unicode="s" horiz-adv-x="502" 
d="M404.5 33.5q-56.5 -43.5 -148.5 -43.5q-59 0 -119 20t-111 61l65 100q43 -31 87 -47.5t82 -16.5q32 0 48 10.5t16 29.5v2q0 19 -21.5 30.5t-69.5 25.5l-20 6q-73 21 -116.5 56t-43.5 105v2q0 53 26 91.5t70.5 58.5t99.5 20q51 0 103.5 -16.5t96.5 -45.5l-58 -105
q-40 24 -78 37t-67 13q-27 0 -41.5 -10.5t-14.5 -26.5v-2q0 -14 14 -24.5t40.5 -20.5t54.5 -19q74 -25 118 -59.5t44 -99.5v-2q0 -86 -56.5 -129.5z" />
    <glyph glyph-name="t" unicode="t" horiz-adv-x="415" 
d="M249 -9q-75 0 -115.5 36.5t-40.5 124.5v254h-64v130h64v137h152v-137h126v-130h-126v-229q0 -26 12 -39t37 -13q40 0 75 19v-122q-52 -31 -120 -31z" />
    <glyph glyph-name="u" unicode="u" horiz-adv-x="623" 
d="M403 76q-31 -40 -67.5 -63t-89.5 -23q-86 0 -134 53t-48 146v347h152v-299q0 -53 24 -81t68 -28t69.5 28t25.5 81v299h152v-536h-152v76z" />
    <glyph glyph-name="v" unicode="v" horiz-adv-x="600" 
d="M231 -4l-211 540h161l120 -359l121 359h158l-211 -540h-138z" />
    <glyph glyph-name="w" unicode="w" horiz-adv-x="861" 
d="M533 -4l-103 329l-105 -329h-136l-165 540h154l86 -325l101 327h131l102 -328l88 326h151l-167 -540h-137z" />
    <glyph glyph-name="x" unicode="x" horiz-adv-x="584" 
d="M290 167l-108 -167h-159l188 272l-181 264h163l100 -156l101 156h159l-181 -261l189 -275h-163z" />
    <glyph glyph-name="y" unicode="y" horiz-adv-x="600" 
d="M302 -129.5q-39 -33.5 -106 -33.5q-39 0 -71.5 9.5t-63.5 27.5l51 110q35 -21 65 -21q20 0 31.5 7.5t21.5 27.5l-210 538h161l122 -365l117 365h158l-206 -549q-31 -83 -70 -116.5z" />
    <glyph glyph-name="z" unicode="z" horiz-adv-x="563" 
d="M50 107l277 306h-268v123h457v-107l-278 -306h278v-123h-466v107z" />
    <glyph glyph-name="braceleft" unicode="{" horiz-adv-x="490" 
d="M365 583.5q-26 -15.5 -35 -35.5t-9 -53l1 -36q2 -28 2 -38q0 -53 -26 -85t-78 -49q52 -17 78 -49t26 -85q0 -10 -2 -38l-1 -36q0 -33 9 -53t35 -35.5t78 -30.5l-27 -101q-90 16 -141 42.5t-72 64t-21 91.5l1 33l2 36q0 58 -25 80.5t-85 22.5h-26v116h26q60 0 85 22.5
t25 80.5l-2 36l-1 33q0 54 21 91.5t72 64t141 42.5l27 -101q-52 -15 -78 -30.5z" />
    <glyph glyph-name="bar" unicode="|" horiz-adv-x="350" 
d="M115 798h120v-926h-120v926z" />
    <glyph glyph-name="braceright" unicode="}" horiz-adv-x="490" 
d="M330 206.5q-25 -22.5 -25 -80.5l2 -36l1 -33q0 -54 -21 -91.5t-72 -64t-141 -42.5l-27 101q52 15 78 30.5t35 35.5t9 53l-1 36q-2 28 -2 38q0 53 26 85t78 49q-52 17 -78 49t-26 85q0 10 2 38l1 36q0 33 -9 53t-35 35.5t-78 30.5l27 101q90 -16 141 -42.5t72 -64
t21 -91.5l-1 -33l-2 -36q0 -58 25 -80.5t85 -22.5h26v-116h-26q-60 0 -85 -22.5z" />
    <glyph glyph-name="asciitilde" unicode="~" horiz-adv-x="510" 
d="M414 268.5q-28 -34.5 -77 -34.5q-23 0 -42 5.5t-53 17.5q-37 16 -55 16q-22 0 -33.5 -11.5t-23.5 -37.5l-81 25q19 69 47 103.5t77 34.5q23 0 42 -5.5t53 -17.5q37 -16 55 -16q22 0 33.5 11.5t23.5 37.5l81 -25q-19 -69 -47 -103.5z" />
    <glyph glyph-name="uni00A0" unicode="&#xa0;" horiz-adv-x="300" 
 />
    <glyph glyph-name="exclamdown" unicode="&#xa1;" horiz-adv-x="324" 
d="M243 540h-162v160h162v-160zM73 20l47 442h84l47 -442v-20h-178v20z" />
    <glyph glyph-name="cent" unicode="&#xa2;" horiz-adv-x="581" 
d="M456 264l86 -87q-42 -47 -93.5 -73.5t-120.5 -27.5l-16 -82h-104l19 98q-80 30 -130 101t-50 161q0 76 36 140.5t100 102t144 37.5h6l14 72h104l-17 -88q59 -20 108 -74l-90 -97q-25 25 -49 37l-55 -276q55 7 108 56zM227 456.5q-33 -42.5 -33 -100.5q0 -42 16.5 -76.5
t47.5 -53.5l54 277q-52 -4 -85 -46.5z" />
    <glyph glyph-name="sterling" unicode="&#xa3;" horiz-adv-x="644" 
d="M198 648q62 62 175 62q79 0 132 -30t93 -85l-117 -94q-27 35 -51 50.5t-55 15.5q-38 0 -60.5 -25.5t-22.5 -70.5v-77h228v-127h-228v-134h304v-133h-536v101l76 25v141h-76v127h76v81q0 111 62 173z" />
    <glyph glyph-name="currency" unicode="&#xa4;" horiz-adv-x="720" 
d="M49 487h94q32 102 107.5 163.5t183.5 61.5q87 0 144.5 -33t101.5 -95l-116 -88q-30 40 -60.5 59.5t-72.5 19.5q-44 0 -76 -22.5t-51 -65.5h184v-101h-208q-1 -11 -1 -35q0 -22 1 -33h208v-101h-186q19 -45 53 -68.5t82 -23.5q41 0 70 19t65 63l110 -81
q-48 -67 -106 -102.5t-139 -35.5q-112 0 -189 61.5t-107 167.5h-92v101h75q-1 10 -1 31q0 25 1 37h-75v101z" />
    <glyph glyph-name="yen" unicode="&#xa5;" horiz-adv-x="686" 
d="M601 200v-108h-184v-92h-148v92h-184v108h184v62h-184v108h143l-214 330h177l154 -259l155 259h172l-216 -330h145v-108h-184v-62h184z" />
    <glyph glyph-name="section" unicode="&#xa7;" horiz-adv-x="632" 
d="M553.5 282q-23.5 -28 -65.5 -44q21 -17 31.5 -41t10.5 -51q0 -72 -54 -114t-151 -42q-146 0 -233 95l82 82q36 -33 71.5 -49.5t75.5 -16.5q33 0 49.5 10t16.5 27q0 12 -8 20.5t-31.5 17t-70.5 18.5q-81 18 -129 38t-70.5 47t-22.5 65q0 46 23.5 74t65.5 44
q-21 17 -31.5 41t-10.5 51q0 72 54 114t151 42q146 0 233 -95l-82 -82q-36 33 -71.5 49.5t-75.5 16.5q-33 0 -49.5 -10t-16.5 -27q0 -12 8 -20.5t31.5 -17t70.5 -18.5q81 -18 129 -38t70.5 -47t22.5 -65q0 -46 -23.5 -74zM420.5 367q-23.5 13 -77.5 26q-72 18 -100 18
q-26 0 -40.5 -12t-14.5 -33q0 -20 23.5 -33t77.5 -26q72 -18 100 -18q26 0 40.5 12t14.5 33q0 20 -23.5 33z" />
    <glyph glyph-name="dieresis" unicode="&#xa8;" 
d="M70 730h146v-135h-146v135zM284 730h146v-135h-146v135z" />
    <glyph glyph-name="copyright" unicode="&#xa9;" horiz-adv-x="830" 
d="M728.5 169.5q-48.5 -83.5 -131.5 -132.5t-183 -49t-182.5 48.5t-130.5 131.5t-48 181t48.5 181.5t131.5 132.5t183 49t182.5 -48.5t130.5 -131.5t48 -181t-48.5 -181.5zM693 512.5q-42 73.5 -115 116.5t-162 43q-90 0 -163.5 -43.5t-115.5 -117.5t-42 -162t42 -161.5
t115 -116.5t162 -43q90 0 163.5 43.5t115.5 117.5t42 162t-42 161.5zM508.5 173q-36.5 -17 -89.5 -17q-56 0 -101 26t-70.5 71.5t-25.5 100.5t25.5 100.5t71 72.5t103.5 27q51 0 86.5 -15t65.5 -44l-55 -64q-48 43 -97 43q-47 0 -78.5 -34.5t-31.5 -84.5t31 -84.5t79 -34.5
q30 0 51.5 11t47.5 34l56 -56q-32 -35 -68.5 -52z" />
    <glyph glyph-name="ordfeminine" unicode="&#xaa;" horiz-adv-x="390" 
d="M242 437q-33 -38 -89 -38q-44 0 -72.5 24t-28.5 67q0 47 32 71t87 24q36 0 72 -12v5q0 26 -16.5 40t-47.5 14q-38 0 -81 -16l-21 63q27 12 53 18t62 6q131 0 131 -127v-171h-81v32zM190 535q-27 0 -42 -10.5t-15 -30.5q0 -18 12 -27.5t33 -9.5q29 0 47.5 14.5t18.5 37.5
v15q-27 11 -54 11zM49 343h278v-66h-278v66z" />
    <glyph glyph-name="guillemotleft" unicode="&#xab;" horiz-adv-x="645" 
d="M195 269l130 -171l-116 -58l-168 224v8l168 224l116 -56zM467 269l130 -171l-116 -58l-168 224v8l168 224l116 -56z" />
    <glyph glyph-name="registered" unicode="&#xae;" horiz-adv-x="830" 
d="M728.5 169.5q-48.5 -83.5 -131.5 -132.5t-183 -49t-182.5 48.5t-130.5 131.5t-48 181t48.5 181.5t131.5 132.5t183 49t182.5 -48.5t130.5 -131.5t48 -181t-48.5 -181.5zM693 512.5q-42 73.5 -115 116.5t-162 43q-90 0 -163.5 -43.5t-115.5 -117.5t-42 -162t42 -161.5
t115 -116.5t162 -43q90 0 163.5 43.5t115.5 117.5t42 162t-42 161.5zM566 350.5q-22 -30.5 -61 -44.5l94 -138h-99l-82 124h-67v-124h-85v385h171q70 0 110.5 -33.5t40.5 -93.5q0 -45 -22 -75.5zM484 463.5q-18 14.5 -50 14.5h-83v-113h85q32 0 49 15.5t17 40.5
q0 28 -18 42.5z" />
    <glyph glyph-name="macron" unicode="&#xaf;" 
d="M70 705h360v-105h-360v105z" />
    <glyph glyph-name="degree" unicode="&#xb0;" horiz-adv-x="480" 
d="M389 453.5q-24 -38.5 -64 -62t-85 -23.5t-85 23.5t-64 62t-24 83.5t24 83.5t64 62t85 23.5t85 -23.5t64 -62t24 -83.5t-24 -83.5zM305.5 603q-26.5 28 -65.5 28t-65.5 -28t-26.5 -66t26.5 -66t65.5 -28t65.5 28t26.5 66t-26.5 66z" />
    <glyph glyph-name="plusminus" unicode="&#xb1;" horiz-adv-x="614" 
d="M540 93.5q-30 -49.5 -88 -77.5t-138 -28q-84 0 -154.5 31.5t-122.5 87.5l103 100q38 -39 80.5 -60t95.5 -21q49 0 76 22t27 61t-34.5 59.5t-97.5 20.5h-77v128h81q52 0 80.5 22.5t28.5 59.5q0 34 -27 54.5t-74 20.5q-41 0 -74 -20.5t-69 -60.5l-106 90q52 65 109 97
t142 32q75 0 131.5 -24t87.5 -67t31 -98q0 -60 -24 -99.5t-68 -63.5q53 -23 82 -59t29 -94q0 -64 -30 -113.5z" />
    <glyph glyph-name="acute" unicode="&#xb4;" 
d="M259 772l131 -57l-128 -120h-116z" />
    <glyph glyph-name="uni00B5" unicode="&#xb5;" horiz-adv-x="850" 
d="M767 207q-30 -68 -84 -118l178 -180v-10h-226l-105 103q-51 -14 -106 -14q-106 0 -190.5 48t-132.5 131t-48 182t48.5 182.5t133.5 132t191 48.5t190.5 -48t132.5 -131t48 -182q0 -76 -30 -144zM608.5 459.5q-27.5 50.5 -75.5 80.5t-109 30t-108.5 -29.5t-74.5 -79.5
t-27 -110t27.5 -110.5t75.5 -80.5t109 -30t108.5 29.5t74.5 79.5t27 110t-27.5 110.5z" />
    <glyph glyph-name="paragraph" unicode="&#xb6;" horiz-adv-x="590" 
d="M506 0h-154v230h-24q-131 0 -212 60.5t-81 173.5q0 73 34.5 126t97 81.5t144.5 28.5h195v-700z" />
    <glyph glyph-name="periodcentered" unicode="&#xb7;" horiz-adv-x="286" 
d="M62 390h162v-160h-162v160z" />
    <glyph glyph-name="cedilla" unicode="&#xb8;" 
d="M245 -173l-127 53l89 130h112z" />
    <glyph glyph-name="ordmasculine" unicode="&#xba;" horiz-adv-x="390" 
d="M328.5 474.5q-20.5 -35.5 -56 -56t-78.5 -20.5t-78 20t-55 55t-20 78q0 42 20.5 77.5t56 56t78.5 20.5t78 -20t55 -55t20 -78q0 -42 -20.5 -77.5zM246.5 609q-20.5 24 -52.5 24t-51.5 -23.5t-19.5 -57.5t20.5 -58t52.5 -24t51.5 23.5t19.5 57.5t-20.5 58zM51 343h288v-66
h-288v66z" />
    <glyph glyph-name="guillemotright" unicode="&#xbb;" horiz-adv-x="645" 
d="M178 267l-130 171l116 58l168 -224v-8l-168 -224l-116 56zM450 267l-130 171l116 58l168 -224v-8l-168 -224l-116 56z" />
    <glyph glyph-name="questiondown" unicode="&#xbf;" horiz-adv-x="544" 
d="M380 540h-162v160h162v-160zM231.5 268q-41.5 -23 -41.5 -65q0 -34 24 -53t68 -19q81 0 150 69l92 -101q-98 -108 -245 -108q-110 0 -176 54.5t-66 153.5q0 89 53 136.5t144 65.5l11 61h102l23 -162l-5 -5q-92 -4 -133.5 -27z" />
    <glyph glyph-name="Agrave" unicode="&#xc0;" horiz-adv-x="790" 
d="M215 875l131 57l113 -177h-116zM541 157h-296l-64 -157h-157l300 705h142l300 -705h-161zM300 293h186l-93 227z" />
    <glyph glyph-name="Aacute" unicode="&#xc1;" horiz-adv-x="790" 
d="M444 932l131 -57l-128 -120h-116zM541 157h-296l-64 -157h-157l300 705h142l300 -705h-161zM300 293h186l-93 227z" />
    <glyph glyph-name="Acircumflex" unicode="&#xc2;" horiz-adv-x="790" 
d="M200 755l123 157h144l123 -157h-117l-79 66l-79 -66h-115zM541 157h-296l-64 -157h-157l300 705h142l300 -705h-161zM300 293h186l-93 227z" />
    <glyph glyph-name="Atilde" unicode="&#xc3;" horiz-adv-x="790" 
d="M554 789.5q-28 -34.5 -77 -34.5q-23 0 -42 5.5t-53 17.5q-37 16 -55 16q-22 0 -33.5 -11.5t-23.5 -37.5l-81 25q19 69 47 103.5t77 34.5q23 0 42 -5.5t53 -17.5q37 -16 55 -16q22 0 33.5 11.5t23.5 37.5l81 -25q-19 -69 -47 -103.5zM541 157h-296l-64 -157h-157l300 705
h142l300 -705h-161zM300 293h186l-93 227z" />
    <glyph glyph-name="Adieresis" unicode="&#xc4;" horiz-adv-x="790" 
d="M215 890h146v-135h-146v135zM429 890h146v-135h-146v135zM541 157h-296l-64 -157h-157l300 705h142l300 -705h-161zM300 293h186l-93 227z" />
    <glyph glyph-name="Aring" unicode="&#xc5;" horiz-adv-x="790" 
d="M541 157h-296l-64 -157h-157l292 687q-19 17 -30.5 40t-11.5 48q0 31 17 58t44.5 43t59.5 16t59.5 -16t44.5 -43t17 -58q0 -25 -11.5 -48t-30.5 -40l292 -687h-161zM439 819q-18 18 -44 18q-25 0 -43.5 -18t-18.5 -44q0 -25 18.5 -43.5t43.5 -18.5q26 0 44 18.5t18 43.5
q0 26 -18 44zM300 293h186l-93 227z" />
    <glyph glyph-name="AE" unicode="&#xc6;" horiz-adv-x="1045" 
d="M484 157h-235l-83 -157h-157l377 700h601v-137h-350v-142h305v-137h-305v-147h355v-137h-508v157zM466 567l-145 -274h163v274h-18z" />
    <glyph glyph-name="Ccedilla" unicode="&#xc7;" horiz-adv-x="738" 
d="M184 66.5q-62 50.5 -96.5 124t-34.5 158.5q0 100 46.5 183t130 131.5t188.5 48.5q93 0 158 -27.5t118 -80.5l-98 -113q-43 39 -86 59t-93 20q-58 0 -104.5 -29.5t-72.5 -79.5t-26 -110t26 -111t72 -80.5t105 -29.5q56 0 97 20t87 62l98 -99q-54 -58 -115 -89t-146 -35
l-65 -162l-127 53l80 118q-80 18 -142 68.5z" />
    <glyph glyph-name="Egrave" unicode="&#xc8;" horiz-adv-x="670" 
d="M189 875l131 57l113 -177h-116zM84 700h528v-137h-375v-142h330v-137h-330v-147h380v-137h-533v700z" />
    <glyph glyph-name="Eacute" unicode="&#xc9;" horiz-adv-x="670" 
d="M377 932l131 -57l-128 -120h-116zM84 700h528v-137h-375v-142h330v-137h-330v-147h380v-137h-533v700z" />
    <glyph glyph-name="Ecircumflex" unicode="&#xca;" horiz-adv-x="670" 
d="M151 755l123 157h144l123 -157h-117l-79 66l-79 -66h-115zM84 700h528v-137h-375v-142h330v-137h-330v-147h380v-137h-533v700z" />
    <glyph glyph-name="Edieresis" unicode="&#xcb;" horiz-adv-x="670" 
d="M166 890h146v-135h-146v135zM380 890h146v-135h-146v135zM84 700h528v-137h-375v-142h330v-137h-330v-147h380v-137h-533v700z" />
    <glyph glyph-name="Igrave" unicode="&#xcc;" horiz-adv-x="336" 
d="M-12 875l131 57l113 -177h-116zM91 700h154v-700h-154v700z" />
    <glyph glyph-name="Iacute" unicode="&#xcd;" horiz-adv-x="336" 
d="M217 932l131 -57l-128 -120h-116zM91 700h154v-700h-154v700z" />
    <glyph glyph-name="Icircumflex" unicode="&#xce;" horiz-adv-x="336" 
d="M-27 755l123 157h144l123 -157h-117l-79 66l-79 -66h-115zM91 700h154v-700h-154v700z" />
    <glyph glyph-name="Idieresis" unicode="&#xcf;" horiz-adv-x="336" 
d="M91 890h146v-135h-146v135zM305 890h146v-135h-146v135zM91 700h154v-700h-154v700z" />
    <glyph glyph-name="Eth" unicode="&#xd0;" horiz-adv-x="812" 
d="M39 420h75v280h273q108 0 192.5 -45.5t132 -125.5t47.5 -178t-47.5 -178.5t-132 -126.5t-192.5 -46h-273v284h-75v136zM418 284h-152v-145h121q62 0 110 26.5t74.5 74t26.5 109.5t-26.5 110t-74.5 75t-110 27h-121v-141h152v-136z" />
    <glyph glyph-name="Ntilde" unicode="&#xd1;" horiz-adv-x="790" 
d="M554 789.5q-28 -34.5 -77 -34.5q-23 0 -42 5.5t-53 17.5q-37 16 -55 16q-22 0 -33.5 -11.5t-23.5 -37.5l-81 25q19 69 47 103.5t77 34.5q23 0 42 -5.5t53 -17.5q37 -16 55 -16q22 0 33.5 11.5t23.5 37.5l81 -25q-19 -69 -47 -103.5zM236 445v-445h-152v700h142l328 -431
v431h152v-700h-131z" />
    <glyph glyph-name="Ograve" unicode="&#xd2;" horiz-adv-x="850" 
d="M235 875l131 57l113 -177h-116zM748.5 168q-48.5 -83 -133.5 -131.5t-191 -48.5t-190.5 48t-132.5 130.5t-48 181.5v2q0 99 48.5 182t133.5 131.5t191 48.5t190.5 -48t132.5 -130.5t48 -181.5v-2q0 -99 -48.5 -182zM608.5 460.5q-27.5 50.5 -75.5 80t-109 29.5
t-108.5 -29t-74.5 -79t-27 -110v-2q0 -60 27.5 -110.5t75.5 -80t109 -29.5t108.5 29t74.5 79t27 110v2q0 60 -27.5 110.5z" />
    <glyph glyph-name="Oacute" unicode="&#xd3;" horiz-adv-x="850" 
d="M484 932l131 -57l-128 -120h-116zM748.5 168q-48.5 -83 -133.5 -131.5t-191 -48.5t-190.5 48t-132.5 130.5t-48 181.5v2q0 99 48.5 182t133.5 131.5t191 48.5t190.5 -48t132.5 -130.5t48 -181.5v-2q0 -99 -48.5 -182zM608.5 460.5q-27.5 50.5 -75.5 80t-109 29.5
t-108.5 -29t-74.5 -79t-27 -110v-2q0 -60 27.5 -110.5t75.5 -80t109 -29.5t108.5 29t74.5 79t27 110v2q0 60 -27.5 110.5z" />
    <glyph glyph-name="Ocircumflex" unicode="&#xd4;" horiz-adv-x="850" 
d="M230 755l123 157h144l123 -157h-117l-79 66l-79 -66h-115zM748.5 168q-48.5 -83 -133.5 -131.5t-191 -48.5t-190.5 48t-132.5 130.5t-48 181.5v2q0 99 48.5 182t133.5 131.5t191 48.5t190.5 -48t132.5 -130.5t48 -181.5v-2q0 -99 -48.5 -182zM608.5 460.5
q-27.5 50.5 -75.5 80t-109 29.5t-108.5 -29t-74.5 -79t-27 -110v-2q0 -60 27.5 -110.5t75.5 -80t109 -29.5t108.5 29t74.5 79t27 110v2q0 60 -27.5 110.5z" />
    <glyph glyph-name="Otilde" unicode="&#xd5;" horiz-adv-x="850" 
d="M584 789.5q-28 -34.5 -77 -34.5q-23 0 -42 5.5t-53 17.5q-37 16 -55 16q-22 0 -33.5 -11.5t-23.5 -37.5l-81 25q19 69 47 103.5t77 34.5q23 0 42 -5.5t53 -17.5q37 -16 55 -16q22 0 33.5 11.5t23.5 37.5l81 -25q-19 -69 -47 -103.5zM748.5 168q-48.5 -83 -133.5 -131.5
t-191 -48.5t-190.5 48t-132.5 130.5t-48 181.5v2q0 99 48.5 182t133.5 131.5t191 48.5t190.5 -48t132.5 -130.5t48 -181.5v-2q0 -99 -48.5 -182zM608.5 460.5q-27.5 50.5 -75.5 80t-109 29.5t-108.5 -29t-74.5 -79t-27 -110v-2q0 -60 27.5 -110.5t75.5 -80t109 -29.5
t108.5 29t74.5 79t27 110v2q0 60 -27.5 110.5z" />
    <glyph glyph-name="Odieresis" unicode="&#xd6;" horiz-adv-x="850" 
d="M245 890h146v-135h-146v135zM459 890h146v-135h-146v135zM748.5 168q-48.5 -83 -133.5 -131.5t-191 -48.5t-190.5 48t-132.5 130.5t-48 181.5v2q0 99 48.5 182t133.5 131.5t191 48.5t190.5 -48t132.5 -130.5t48 -181.5v-2q0 -99 -48.5 -182zM608.5 460.5
q-27.5 50.5 -75.5 80t-109 29.5t-108.5 -29t-74.5 -79t-27 -110v-2q0 -60 27.5 -110.5t75.5 -80t109 -29.5t108.5 29t74.5 79t27 110v2q0 60 -27.5 110.5z" />
    <glyph glyph-name="Oslash" unicode="&#xd8;" horiz-adv-x="850" 
d="M748.5 168.5q-48.5 -83.5 -133.5 -132t-191 -48.5q-107 0 -193 50l-39 -43h-147l98 114q-43 48 -66.5 109.5t-23.5 130.5q0 99 48.5 182.5t133.5 132t191 48.5q107 0 193 -50l39 43h147l-98 -114q43 -48 66.5 -109.5t23.5 -130.5q0 -99 -48.5 -182.5zM424 573
q-61 0 -110 -30.5t-76 -81.5t-27 -110q0 -68 35 -123l277 321q-46 24 -99 24zM604 472l-277 -321q46 -24 99 -24q61 0 110 30.5t76 81.5t27 110q0 68 -35 123z" />
    <glyph glyph-name="Ugrave" unicode="&#xd9;" horiz-adv-x="756" 
d="M203 870l131 57l113 -177h-116zM601.5 69q-81.5 -80 -225.5 -80q-143 0 -223 79.5t-80 231.5v400h154v-396q0 -84 39.5 -128.5t111.5 -44.5t111.5 43t39.5 125v401h154v-395q0 -156 -81.5 -236z" />
    <glyph glyph-name="Uacute" unicode="&#xda;" horiz-adv-x="756" 
d="M422 927l131 -57l-128 -120h-116zM601.5 69q-81.5 -80 -225.5 -80q-143 0 -223 79.5t-80 231.5v400h154v-396q0 -84 39.5 -128.5t111.5 -44.5t111.5 43t39.5 125v401h154v-395q0 -156 -81.5 -236z" />
    <glyph glyph-name="Ucircumflex" unicode="&#xdb;" horiz-adv-x="756" 
d="M183 755l123 157h144l123 -157h-117l-79 66l-79 -66h-115zM601.5 69q-81.5 -80 -225.5 -80q-143 0 -223 79.5t-80 231.5v400h154v-396q0 -84 39.5 -128.5t111.5 -44.5t111.5 43t39.5 125v401h154v-395q0 -156 -81.5 -236z" />
    <glyph glyph-name="Udieresis" unicode="&#xdc;" horiz-adv-x="756" 
d="M198 890h146v-135h-146v135zM412 890h146v-135h-146v135zM601.5 69q-81.5 -80 -225.5 -80q-143 0 -223 79.5t-80 231.5v400h154v-396q0 -84 39.5 -128.5t111.5 -44.5t111.5 43t39.5 125v401h154v-395q0 -156 -81.5 -236z" />
    <glyph glyph-name="Yacute" unicode="&#xdd;" horiz-adv-x="716" 
d="M412 927l131 -57l-128 -120h-116zM435 0h-154v276l-269 424h180l167 -281l170 281h175l-269 -421v-279z" />
    <glyph glyph-name="Thorn" unicode="&#xde;" horiz-adv-x="673" 
d="M600.5 220.5q-37.5 -55.5 -101.5 -84t-144 -28.5h-117v-108h-154v700h154v-102h132q82 0 142.5 -30.5t93 -85.5t32.5 -127q0 -79 -37.5 -134.5zM449 431.5q-33 27.5 -92 27.5h-119v-214h122q57 0 89.5 29.5t32.5 77.5q0 52 -33 79.5z" />
    <glyph glyph-name="germandbls" unicode="&#xdf;" horiz-adv-x="620" 
d="M513 445q-24 -37 -67 -67q131 -57 131 -178q0 -100 -75 -153.5t-203 -48.5v114q62 3 95 26.5t33 66.5q0 40 -35 65t-93 33v100q41 26 64.5 56t23.5 69q0 38 -21.5 59.5t-58.5 21.5q-39 0 -63.5 -27.5t-24.5 -72.5v-509h-151v503q0 110 66 172t180 62q70 0 120 -25.5
t76.5 -69.5t26.5 -100q0 -60 -24 -97z" />
    <glyph glyph-name="agrave" unicode="&#xe0;" horiz-adv-x="592" 
d="M126 715l131 57l113 -177h-116zM382 58q-61 -68 -162 -68q-79 0 -131.5 43.5t-52.5 120.5v2q0 85 58.5 128t157.5 43q67 0 131 -22v9q0 48 -29 73t-86 25q-41 0 -74.5 -7t-73.5 -22l-38 116q49 22 96.5 32.5t111.5 10.5q122 0 180.5 -59.5t58.5 -171.5v-311h-147v58z
M288 236q-49 0 -77 -19t-28 -55v-2q0 -30 23 -47.5t60 -17.5q53 0 86 26.5t33 67.5v27q-43 20 -97 20z" />
    <glyph glyph-name="aacute" unicode="&#xe1;" horiz-adv-x="592" 
d="M340 772l131 -57l-128 -120h-116zM382 58q-61 -68 -162 -68q-79 0 -131.5 43.5t-52.5 120.5v2q0 85 58.5 128t157.5 43q67 0 131 -22v9q0 48 -29 73t-86 25q-41 0 -74.5 -7t-73.5 -22l-38 116q49 22 96.5 32.5t111.5 10.5q122 0 180.5 -59.5t58.5 -171.5v-311h-147v58z
M288 236q-49 0 -77 -19t-28 -55v-2q0 -30 23 -47.5t60 -17.5q53 0 86 26.5t33 67.5v27q-43 20 -97 20z" />
    <glyph glyph-name="acircumflex" unicode="&#xe2;" horiz-adv-x="592" 
d="M99 595l123 157h144l123 -157h-117l-79 66l-79 -66h-115zM382 58q-61 -68 -162 -68q-79 0 -131.5 43.5t-52.5 120.5v2q0 85 58.5 128t157.5 43q67 0 131 -22v9q0 48 -29 73t-86 25q-41 0 -74.5 -7t-73.5 -22l-38 116q49 22 96.5 32.5t111.5 10.5q122 0 180.5 -59.5
t58.5 -171.5v-311h-147v58zM288 236q-49 0 -77 -19t-28 -55v-2q0 -30 23 -47.5t60 -17.5q53 0 86 26.5t33 67.5v27q-43 20 -97 20z" />
    <glyph glyph-name="atilde" unicode="&#xe3;" horiz-adv-x="592" 
d="M455 629.5q-28 -34.5 -77 -34.5q-23 0 -42 5.5t-53 17.5q-37 16 -55 16q-22 0 -33.5 -11.5t-23.5 -37.5l-81 25q19 69 47 103.5t77 34.5q23 0 42 -5.5t53 -17.5q37 -16 55 -16q22 0 33.5 11.5t23.5 37.5l81 -25q-19 -69 -47 -103.5zM382 58q-61 -68 -162 -68
q-79 0 -131.5 43.5t-52.5 120.5v2q0 85 58.5 128t157.5 43q67 0 131 -22v9q0 48 -29 73t-86 25q-41 0 -74.5 -7t-73.5 -22l-38 116q49 22 96.5 32.5t111.5 10.5q122 0 180.5 -59.5t58.5 -171.5v-311h-147v58zM288 236q-49 0 -77 -19t-28 -55v-2q0 -30 23 -47.5t60 -17.5
q53 0 86 26.5t33 67.5v27q-43 20 -97 20z" />
    <glyph glyph-name="adieresis" unicode="&#xe4;" horiz-adv-x="592" 
d="M114 730h146v-135h-146v135zM328 730h146v-135h-146v135zM382 58q-61 -68 -162 -68q-79 0 -131.5 43.5t-52.5 120.5v2q0 85 58.5 128t157.5 43q67 0 131 -22v9q0 48 -29 73t-86 25q-41 0 -74.5 -7t-73.5 -22l-38 116q49 22 96.5 32.5t111.5 10.5q122 0 180.5 -59.5
t58.5 -171.5v-311h-147v58zM288 236q-49 0 -77 -19t-28 -55v-2q0 -30 23 -47.5t60 -17.5q53 0 86 26.5t33 67.5v27q-43 20 -97 20z" />
    <glyph glyph-name="aring" unicode="&#xe5;" horiz-adv-x="592" 
d="M398 652q-17 -27 -44.5 -43t-59.5 -16t-59.5 16t-44.5 43t-17 58t17 58t44.5 43t59.5 16t59.5 -16t44.5 -43t17 -58t-17 -58zM338 754q-18 18 -44 18q-25 0 -43.5 -18t-18.5 -44q0 -25 18.5 -43.5t43.5 -18.5q26 0 44 18.5t18 43.5q0 26 -18 44zM382 58q-61 -68 -162 -68
q-79 0 -131.5 43.5t-52.5 120.5v2q0 85 58.5 128t157.5 43q67 0 131 -22v9q0 48 -29 73t-86 25q-41 0 -74.5 -7t-73.5 -22l-38 116q49 22 96.5 32.5t111.5 10.5q122 0 180.5 -59.5t58.5 -171.5v-311h-147v58zM288 236q-49 0 -77 -19t-28 -55v-2q0 -30 23 -47.5t60 -17.5
q53 0 86 26.5t33 67.5v27q-43 20 -97 20z" />
    <glyph glyph-name="ae" unicode="&#xe6;" horiz-adv-x="951" 
d="M238 -10q-91 0 -146.5 44.5t-55.5 122.5q0 84 58.5 127t157.5 43q67 0 131 -22v9q0 48 -29 73t-86 25q-41 0 -74.5 -7t-73.5 -22l-38 116q49 22 96.5 32.5t111.5 10.5q126 0 182 -68q70 72 177 72q84 0 142 -40t86.5 -106.5t28.5 -145.5q0 -11 -2 -39h-373q12 -51 46 -78
t85 -27q38 0 68 13t62 42l87 -77q-81 -100 -219 -100q-61 0 -113.5 21t-90.5 60q-107 -79 -218 -79zM721.5 393q-29.5 31 -76.5 31q-46 0 -76.5 -30.5t-39.5 -83.5h229q-7 52 -36.5 83zM288 236q-50 0 -77.5 -18.5t-27.5 -54.5q0 -31 23 -48.5t60 -17.5q71 0 137 51
q-15 35 -19 69q-45 19 -96 19z" />
    <glyph glyph-name="ccedilla" unicode="&#xe7;" horiz-adv-x="571" 
d="M95.5 99q-53.5 73 -53.5 167q0 77 36 141t100.5 101.5t144.5 37.5q73 0 123.5 -23t90.5 -67l-93 -100q-28 30 -56 44.5t-66 14.5q-37 0 -67 -20t-46.5 -53.5t-16.5 -73.5q0 -64 37.5 -106.5t98.5 -42.5q36 0 64.5 14t58.5 43l89 -90q-40 -44 -85 -68.5t-109 -28.5
l-65 -162l-127 53l82 120q-87 26 -140.5 99z" />
    <glyph glyph-name="egrave" unicode="&#xe8;" horiz-adv-x="613" 
d="M122 715l131 57l113 -177h-116zM566 215h-373q11 -51 45 -78t86 -27q38 0 68 13t62 42l87 -77q-81 -100 -219 -100q-80 0 -143.5 35t-100 98t-36.5 144v2q0 76 34 140t94.5 101.5t136.5 37.5q86 0 144.5 -40t87.5 -106t29 -145v-2q0 -10 -2 -38zM383.5 393
q-29.5 31 -76.5 31q-46 0 -76.5 -30.5t-39.5 -83.5h229q-7 52 -36.5 83z" />
    <glyph glyph-name="eacute" unicode="&#xe9;" horiz-adv-x="613" 
d="M359 772l131 -57l-128 -120h-116zM566 215h-373q11 -51 45 -78t86 -27q38 0 68 13t62 42l87 -77q-81 -100 -219 -100q-80 0 -143.5 35t-100 98t-36.5 144v2q0 76 34 140t94.5 101.5t136.5 37.5q86 0 144.5 -40t87.5 -106t29 -145v-2q0 -10 -2 -38zM383.5 393
q-29.5 31 -76.5 31q-46 0 -76.5 -30.5t-39.5 -83.5h229q-7 52 -36.5 83z" />
    <glyph glyph-name="ecircumflex" unicode="&#xea;" horiz-adv-x="613" 
d="M111 595l123 157h144l123 -157h-117l-79 66l-79 -66h-115zM566 215h-373q11 -51 45 -78t86 -27q38 0 68 13t62 42l87 -77q-81 -100 -219 -100q-80 0 -143.5 35t-100 98t-36.5 144v2q0 76 34 140t94.5 101.5t136.5 37.5q86 0 144.5 -40t87.5 -106t29 -145v-2q0 -10 -2 -38
zM383.5 393q-29.5 31 -76.5 31q-46 0 -76.5 -30.5t-39.5 -83.5h229q-7 52 -36.5 83z" />
    <glyph glyph-name="edieresis" unicode="&#xeb;" horiz-adv-x="613" 
d="M126 730h146v-135h-146v135zM340 730h146v-135h-146v135zM566 215h-373q11 -51 45 -78t86 -27q38 0 68 13t62 42l87 -77q-81 -100 -219 -100q-80 0 -143.5 35t-100 98t-36.5 144v2q0 76 34 140t94.5 101.5t136.5 37.5q86 0 144.5 -40t87.5 -106t29 -145v-2q0 -10 -2 -38z
M383.5 393q-29.5 31 -76.5 31q-46 0 -76.5 -30.5t-39.5 -83.5h229q-7 52 -36.5 83z" />
    <glyph glyph-name="igrave" unicode="&#xec;" horiz-adv-x="302" 
d="M-27 715l131 57l113 -177h-116zM75 536h152v-536h-152v536z" />
    <glyph glyph-name="iacute" unicode="&#xed;" horiz-adv-x="302" 
d="M198 772l131 -57l-128 -120h-116zM75 536h152v-536h-152v536z" />
    <glyph glyph-name="icircumflex" unicode="&#xee;" horiz-adv-x="302" 
d="M75 595l123 157h144l123 -157h-117l-79 66l-79 -66h-115zM75 536h152v-536h-152v536z" />
    <glyph glyph-name="idieresis" unicode="&#xef;" horiz-adv-x="302" 
d="M-29 730h146v-135h-146v135zM185 730h146v-135h-146v135zM75 536h152v-536h-152v536z" />
    <glyph glyph-name="eth" unicode="&#xf0;" horiz-adv-x="648" 
d="M137 598l115 46l-64 86h171l23 -33l100 41l55 -75l-102 -41l81 -115q47 -67 67.5 -123.5t20.5 -120.5q0 -75 -34 -138t-99 -100t-152 -37q-79 0 -142 35t-99 95t-36 133q0 69 29 122t81.5 83t118.5 30q34 0 62.5 -7.5t60.5 -24.5l-87 116l-114 -47zM419 340.5
q-37 37.5 -96 37.5q-60 0 -96.5 -37t-36.5 -93t37.5 -94t96.5 -38q60 0 96 37.5t36 94.5q0 55 -37 92.5z" />
    <glyph glyph-name="ntilde" unicode="&#xf1;" horiz-adv-x="623" 
d="M475 629.5q-28 -34.5 -77 -34.5q-23 0 -42 5.5t-53 17.5q-37 16 -55 16q-22 0 -33.5 -11.5t-23.5 -37.5l-81 25q19 69 47 103.5t77 34.5q23 0 42 -5.5t53 -17.5q37 -16 55 -16q22 0 33.5 11.5t23.5 37.5l81 -25q-19 -69 -47 -103.5zM407 299q0 53 -24 81t-68 28
t-69.5 -28t-25.5 -81v-299h-152v536h152v-76q31 40 67.5 63t89.5 23q86 0 134 -53t48 -146v-347h-152v299z" />
    <glyph glyph-name="ograve" unicode="&#xf2;" horiz-adv-x="664" 
d="M146 715l131 57l113 -177h-116zM584 127q-38 -64 -104.5 -101.5t-148.5 -37.5q-81 0 -147.5 37t-104 100.5t-37.5 139.5v2q0 76 38 140t104.5 101.5t148.5 37.5q81 0 147.5 -37t104 -100.5t37.5 -139.5v-2q0 -76 -38 -140zM454 340.5q-18 33.5 -50 54t-73 20.5
q-63 0 -101 -42t-38 -104v-2q0 -40 18 -73.5t50 -54t73 -20.5q63 0 101 42t38 104v2q0 40 -18 73.5z" />
    <glyph glyph-name="oacute" unicode="&#xf3;" horiz-adv-x="664" 
d="M387 772l131 -57l-128 -120h-116zM584 127q-38 -64 -104.5 -101.5t-148.5 -37.5q-81 0 -147.5 37t-104 100.5t-37.5 139.5v2q0 76 38 140t104.5 101.5t148.5 37.5q81 0 147.5 -37t104 -100.5t37.5 -139.5v-2q0 -76 -38 -140zM454 340.5q-18 33.5 -50 54t-73 20.5
q-63 0 -101 -42t-38 -104v-2q0 -40 18 -73.5t50 -54t73 -20.5q63 0 101 42t38 104v2q0 40 -18 73.5z" />
    <glyph glyph-name="ocircumflex" unicode="&#xf4;" horiz-adv-x="664" 
d="M137 595l123 157h144l123 -157h-117l-79 66l-79 -66h-115zM584 127q-38 -64 -104.5 -101.5t-148.5 -37.5q-81 0 -147.5 37t-104 100.5t-37.5 139.5v2q0 76 38 140t104.5 101.5t148.5 37.5q81 0 147.5 -37t104 -100.5t37.5 -139.5v-2q0 -76 -38 -140zM454 340.5
q-18 33.5 -50 54t-73 20.5q-63 0 -101 -42t-38 -104v-2q0 -40 18 -73.5t50 -54t73 -20.5q63 0 101 42t38 104v2q0 40 -18 73.5z" />
    <glyph glyph-name="otilde" unicode="&#xf5;" horiz-adv-x="664" 
d="M491 629.5q-28 -34.5 -77 -34.5q-23 0 -42 5.5t-53 17.5q-37 16 -55 16q-22 0 -33.5 -11.5t-23.5 -37.5l-81 25q19 69 47 103.5t77 34.5q23 0 42 -5.5t53 -17.5q37 -16 55 -16q22 0 33.5 11.5t23.5 37.5l81 -25q-19 -69 -47 -103.5zM584 127q-38 -64 -104.5 -101.5
t-148.5 -37.5q-81 0 -147.5 37t-104 100.5t-37.5 139.5v2q0 76 38 140t104.5 101.5t148.5 37.5q81 0 147.5 -37t104 -100.5t37.5 -139.5v-2q0 -76 -38 -140zM454 340.5q-18 33.5 -50 54t-73 20.5q-63 0 -101 -42t-38 -104v-2q0 -40 18 -73.5t50 -54t73 -20.5q63 0 101 42
t38 104v2q0 40 -18 73.5z" />
    <glyph glyph-name="odieresis" unicode="&#xf6;" horiz-adv-x="664" 
d="M152 730h146v-135h-146v135zM366 730h146v-135h-146v135zM584 127q-38 -64 -104.5 -101.5t-148.5 -37.5q-81 0 -147.5 37t-104 100.5t-37.5 139.5v2q0 76 38 140t104.5 101.5t148.5 37.5q81 0 147.5 -37t104 -100.5t37.5 -139.5v-2q0 -76 -38 -140zM454 340.5
q-18 33.5 -50 54t-73 20.5q-63 0 -101 -42t-38 -104v-2q0 -40 18 -73.5t50 -54t73 -20.5q63 0 101 42t38 104v2q0 40 -18 73.5z" />
    <glyph glyph-name="oslash" unicode="&#xf8;" horiz-adv-x="664" 
d="M584 127q-38 -64 -104.5 -101.5t-148.5 -37.5q-77 0 -144 35l-27 -28h-133l80 92q-31 37 -48 82.5t-17 96.5q0 77 38 141t104.5 101.5t148.5 37.5q78 0 143 -35l28 30h133l-81 -93q66 -77 66 -180q0 -77 -38 -141zM331 419q-64 0 -103.5 -43.5t-39.5 -107.5q0 -37 16 -71
l184 210q-25 12 -57 12zM460 337l-183 -211q27 -11 56 -11q64 0 103.5 43.5t39.5 107.5q0 37 -16 71z" />
    <glyph glyph-name="ugrave" unicode="&#xf9;" horiz-adv-x="623" 
d="M141 715l131 57l113 -177h-116zM403 76q-31 -40 -67.5 -63t-89.5 -23q-86 0 -134 53t-48 146v347h152v-299q0 -53 24 -81t68 -28t69.5 28t25.5 81v299h152v-536h-152v76z" />
    <glyph glyph-name="uacute" unicode="&#xfa;" horiz-adv-x="623" 
d="M350 772l131 -57l-128 -120h-116zM403 76q-31 -40 -67.5 -63t-89.5 -23q-86 0 -134 53t-48 146v347h152v-299q0 -53 24 -81t68 -28t69.5 28t25.5 81v299h152v-536h-152v76z" />
    <glyph glyph-name="ucircumflex" unicode="&#xfb;" horiz-adv-x="623" 
d="M116 595l123 157h144l123 -157h-117l-79 66l-79 -66h-115zM403 76q-31 -40 -67.5 -63t-89.5 -23q-86 0 -134 53t-48 146v347h152v-299q0 -53 24 -81t68 -28t69.5 28t25.5 81v299h152v-536h-152v76z" />
    <glyph glyph-name="udieresis" unicode="&#xfc;" horiz-adv-x="623" 
d="M131 730h146v-135h-146v135zM345 730h146v-135h-146v135zM403 76q-31 -40 -67.5 -63t-89.5 -23q-86 0 -134 53t-48 146v347h152v-299q0 -53 24 -81t68 -28t69.5 28t25.5 81v299h152v-536h-152v76z" />
    <glyph glyph-name="yacute" unicode="&#xfd;" horiz-adv-x="600" 
d="M342 772l131 -57l-128 -120h-116zM302 -129.5q-39 -33.5 -106 -33.5q-39 0 -71.5 9.5t-63.5 27.5l51 110q35 -21 65 -21q20 0 31.5 7.5t21.5 27.5l-210 538h161l122 -365l117 365h158l-206 -549q-31 -83 -70 -116.5z" />
    <glyph glyph-name="thorn" unicode="&#xfe;" horiz-adv-x="675" 
d="M597.5 118q-33.5 -63 -89.5 -95.5t-121 -32.5q-56 0 -96 21.5t-71 58.5v-230h-152v890h152v-271q64 87 167 87q64 0 120 -33t90 -96t34 -149q0 -87 -33.5 -150zM461.5 346q-17.5 34 -47.5 52.5t-66 18.5t-65.5 -18.5t-47 -52.5t-17.5 -78t17.5 -78t47 -52.5t65.5 -18.5
t66 18.5t47.5 52.5t17.5 78t-17.5 78z" />
    <glyph glyph-name="ydieresis" unicode="&#xff;" horiz-adv-x="600" 
d="M120 730h146v-135h-146v135zM334 730h146v-135h-146v135zM302 -129.5q-39 -33.5 -106 -33.5q-39 0 -71.5 9.5t-63.5 27.5l51 110q35 -21 65 -21q20 0 31.5 7.5t21.5 27.5l-210 538h161l122 -365l117 365h158l-206 -549q-31 -83 -70 -116.5z" />
    <glyph glyph-name="dotlessi" unicode="&#x131;" horiz-adv-x="302" 
d="M75 536h152v-536h-152v536z" />
    <glyph glyph-name="Lslash" unicode="&#x141;" horiz-adv-x="649" 
d="M114 262l-75 -22v143l75 22v295h152v-249l192 57v-143l-192 -57v-168h351v-140h-503v262z" />
    <glyph glyph-name="lslash" unicode="&#x142;" horiz-adv-x="362" 
d="M106 0v280l-76 -23v143l76 23v307h150v-263l76 23v-143l-76 -23v-324h-150z" />
    <glyph glyph-name="OE" unicode="&#x152;" horiz-adv-x="1075" 
d="M232.5 45.5q-84.5 45.5 -132 125.5t-47.5 178t47.5 178.5t132 126.5t192.5 46h592v-137h-350v-142h305v-137h-305v-147h355v-137h-597q-108 0 -192.5 45.5zM425 561q-62 0 -110 -26.5t-74.5 -74t-26.5 -109.5t26.5 -110t74.5 -75t110 -27h89v422h-89z" />
    <glyph glyph-name="oe" unicode="&#x153;" horiz-adv-x="1033" 
d="M439.5 13.5q-54.5 -25.5 -117.5 -25.5q-75 0 -139.5 37t-102.5 101t-38 140t38.5 140.5t104 102t143.5 37.5q63 0 116 -24.5t91 -69.5q34 44 84.5 69t111.5 25q84 0 142 -40t86.5 -106.5t28.5 -145.5q0 -11 -2 -39h-373q12 -51 46 -78t85 -27q38 0 68 13t62 42l87 -77
q-81 -100 -219 -100q-67 0 -120.5 24.5t-89.5 70.5q-38 -44 -92.5 -69.5zM803.5 393q-29.5 31 -76.5 31q-46 0 -76.5 -30.5t-39.5 -83.5h229q-7 52 -36.5 83zM445 340.5q-17 34.5 -48.5 54.5t-70.5 20q-61 0 -97.5 -42.5t-36.5 -104.5q0 -40 17 -74.5t48.5 -54.5t70.5 -20
q61 0 97.5 42.5t36.5 104.5q0 40 -17 74.5z" />
    <glyph glyph-name="Scaron" unicode="&#x160;" horiz-adv-x="640" 
d="M512 912l-123 -157h-144l-123 157h117l79 -66l79 66h115zM519.5 47.5q-70.5 -57.5 -186.5 -57.5q-81 0 -158 28.5t-139 83.5l91 109q50 -41 101 -63t108 -22q47 0 74 17.5t27 48.5v2q0 21 -11 35t-41.5 26.5t-88.5 27.5q-80 21 -128.5 43.5t-76 63t-27.5 107.5v2
q0 63 31.5 110.5t87 74t126.5 26.5q149 0 260 -89l-80 -116q-99 69 -182 69q-43 0 -66.5 -17t-23.5 -44v-2q0 -23 12.5 -37.5t43.5 -26.5t95 -28q114 -30 168 -76.5t54 -133.5v-2q0 -102 -70.5 -159.5z" />
    <glyph glyph-name="scaron" unicode="&#x161;" horiz-adv-x="502" 
d="M450 752l-123 -157h-144l-123 157h117l79 -66l79 66h115zM404.5 33.5q-56.5 -43.5 -148.5 -43.5q-59 0 -119 20t-111 61l65 100q43 -31 87 -47.5t82 -16.5q32 0 48 10.5t16 29.5v2q0 19 -21.5 30.5t-69.5 25.5l-20 6q-73 21 -116.5 56t-43.5 105v2q0 53 26 91.5
t70.5 58.5t99.5 20q51 0 103.5 -16.5t96.5 -45.5l-58 -105q-40 24 -78 37t-67 13q-27 0 -41.5 -10.5t-14.5 -26.5v-2q0 -14 14 -24.5t40.5 -20.5t54.5 -19q74 -25 118 -59.5t44 -99.5v-2q0 -86 -56.5 -129.5z" />
    <glyph glyph-name="Ydieresis" unicode="&#x178;" horiz-adv-x="716" 
d="M178 890h146v-135h-146v135zM392 890h146v-135h-146v135zM435 0h-154v276l-269 424h180l167 -281l170 281h175l-269 -421v-279z" />
    <glyph glyph-name="Zcaron" unicode="&#x17d;" horiz-adv-x="708" 
d="M552 912l-123 -157h-144l-123 157h117l79 -66l79 66h115zM63 117l385 448h-373v135h571v-117l-385 -448h385v-135h-583v117z" />
    <glyph glyph-name="zcaron" unicode="&#x17e;" horiz-adv-x="563" 
d="M484 752l-123 -157h-144l-123 157h117l79 -66l79 66h115zM50 107l277 306h-268v123h457v-107l-278 -306h278v-123h-466v107z" />
    <glyph glyph-name="florin" unicode="&#x192;" horiz-adv-x="536" 
d="M432 577q-33 0 -51 -16.5t-24 -51.5l-7 -40h115v-125h-137l-33 -187q-16 -87 -62 -124.5t-133 -37.5q-36 0 -59 5v123q20 -3 37 -3q32 0 48 14t22 47l28 163h-67v125h89l14 74q15 81 59 121.5t130 40.5q62 0 99 -12v-126q-40 10 -68 10z" />
    <glyph glyph-name="circumflex" unicode="&#x2c6;" 
d="M55 595l123 157h144l123 -157h-117l-79 66l-79 -66h-115z" />
    <glyph glyph-name="caron" unicode="&#x2c7;" 
d="M445 752l-123 -157h-144l-123 157h117l79 -66l79 66h115z" />
    <glyph glyph-name="breve" unicode="&#x2d8;" 
d="M380.5 635q-50.5 -42 -130.5 -42t-130.5 42t-57.5 117h102q10 -29 30 -44.5t56 -15.5t56 15.5t30 44.5h102q-7 -75 -57.5 -117z" />
    <glyph glyph-name="dotaccent" unicode="&#x2d9;" 
d="M175 730h150v-135h-150v135z" />
    <glyph glyph-name="ring" unicode="&#x2da;" 
d="M354 652q-17 -27 -44.5 -43t-59.5 -16t-59.5 16t-44.5 43t-17 58t17 58t44.5 43t59.5 16t59.5 -16t44.5 -43t17 -58t-17 -58zM294 754q-18 18 -44 18q-25 0 -43.5 -18t-18.5 -44q0 -25 18.5 -43.5t43.5 -18.5q26 0 44 18.5t18 43.5q0 26 -18 44z" />
    <glyph glyph-name="ogonek" unicode="&#x2db;" 
d="M285 -29q0 -32 20 -48.5t66 -19.5v-67q-26 -2 -37 -2q-78 0 -120.5 28.5t-42.5 82.5q0 31 16 65h104q-6 -21 -6 -39z" />
    <glyph glyph-name="tilde" unicode="&#x2dc;" 
d="M409 629.5q-28 -34.5 -77 -34.5q-23 0 -42 5.5t-53 17.5q-37 16 -55 16q-22 0 -33.5 -11.5t-23.5 -37.5l-81 25q19 69 47 103.5t77 34.5q23 0 42 -5.5t53 -17.5q37 -16 55 -16q22 0 33.5 11.5t23.5 37.5l81 -25q-19 -69 -47 -103.5z" />
    <glyph glyph-name="hungarumlaut" unicode="&#x2dd;" 
d="M147 772l128 -57l-128 -120h-111zM344 772l128 -57l-130 -120h-111z" />
    <glyph glyph-name="uni03A9" unicode="&#x3a9;" horiz-adv-x="764" 
d="M367 406h-121v-406h-152v406h-63v125h63v34q0 172 166 172q61 0 108 -15v-126q-36 13 -69 13q-55 0 -55 -58v-21h123v-124zM749 406h-121v-406h-152v406h-63v125h63v34q0 172 166 172q61 0 108 -15v-126q-36 13 -69 13q-55 0 -55 -58v-21h123v-124z" />
    <glyph glyph-name="pi" unicode="&#x3c0;" horiz-adv-x="830" 
d="M728.5 169.5q-48.5 -83.5 -131.5 -132.5t-183 -49t-182.5 48.5t-130.5 131.5t-48 181t48.5 181.5t131.5 132.5t183 49t182.5 -48.5t130.5 -131.5t48 -181t-48.5 -181.5zM693 512.5q-42 73.5 -115 116.5t-162 43q-90 0 -163.5 -43.5t-115.5 -117.5t-42 -162t42 -161.5
t115 -116.5t162 -43q90 0 163.5 43.5t115.5 117.5t42 162t-42 161.5zM544 315.5q-44 -35.5 -112 -35.5h-64v-116h-86v385h158q68 0 108 -36.5t40 -97.5q0 -64 -44 -99.5zM482.5 457.5q-18.5 15.5 -50.5 15.5h-64v-118h66q31 0 49 16.5t18 42.5q0 28 -18.5 43.5z" />
    <glyph glyph-name="endash" unicode="&#x2013;" horiz-adv-x="528" 
d="M50 381h428v-142h-428v142z" />
    <glyph glyph-name="emdash" unicode="&#x2014;" horiz-adv-x="898" 
d="M50 381h798v-142h-798v142z" />
    <glyph glyph-name="quoteleft" unicode="&#x2018;" horiz-adv-x="286" 
d="M178 611.5q-25 -25.5 -21 -68.5h62v-160h-162v135q0 96 46.5 140.5t138.5 46.5l13 -63q-52 -5 -77 -30.5z" />
    <glyph glyph-name="quoteright" unicode="&#x2019;" horiz-adv-x="286" 
d="M108 471.5q25 25.5 21 68.5h-62v160h162v-135q0 -96 -46.5 -140.5t-138.5 -46.5l-13 63q52 5 77 30.5z" />
    <glyph glyph-name="quotesinglbase" unicode="&#x201a;" horiz-adv-x="286" 
d="M103 -68.5q25 25.5 21 68.5h-62v160h162v-135q0 -96 -46.5 -140.5t-138.5 -46.5l-13 63q52 5 77 30.5z" />
    <glyph glyph-name="quotedblleft" unicode="&#x201c;" horiz-adv-x="540" 
d="M178 611.5q-25 -25.5 -21 -68.5h62v-160h-162v135q0 96 46.5 140.5t138.5 46.5l13 -63q-52 -5 -77 -30.5zM432 611.5q-25 -25.5 -21 -68.5h62v-160h-162v135q0 96 46.5 140.5t138.5 46.5l13 -63q-52 -5 -77 -30.5z" />
    <glyph glyph-name="quotedblright" unicode="&#x201d;" horiz-adv-x="540" 
d="M108 471.5q25 25.5 21 68.5h-62v160h162v-135q0 -96 -46.5 -140.5t-138.5 -46.5l-13 63q52 5 77 30.5zM362 471.5q25 25.5 21 68.5h-62v160h162v-135q0 -96 -46.5 -140.5t-138.5 -46.5l-13 63q52 5 77 30.5z" />
    <glyph glyph-name="quotedblbase" unicode="&#x201e;" horiz-adv-x="540" 
d="M103 -68.5q25 25.5 21 68.5h-62v160h162v-135q0 -96 -46.5 -140.5t-138.5 -46.5l-13 63q52 5 77 30.5zM357 -68.5q25 25.5 21 68.5h-62v160h162v-135q0 -96 -46.5 -140.5t-138.5 -46.5l-13 63q52 5 77 30.5z" />
    <glyph glyph-name="dagger" unicode="&#x2020;" horiz-adv-x="410" 
d="M163 238l10 270l-120 -10v83l119 -10l-13 129h92l-13 -129l119 10v-83l-120 10l10 -270h-84z" />
    <glyph glyph-name="daggerdbl" unicode="&#x2021;" horiz-adv-x="430" 
d="M261 0h-92l13 129l-119 -10v83l119 -10l-9 158l9 158l-119 -10v83l119 -10l-13 129h92l-13 -129l119 10v-83l-119 10l9 -158l-9 -158l119 10v-83l-119 10z" />
    <glyph glyph-name="bullet" unicode="&#x2022;" 
d="M379 277.5q-20 -34.5 -54.5 -54.5t-74.5 -20t-74.5 20t-54.5 54.5t-20 74.5t20 74.5t54.5 54.5t74.5 20t74.5 -20t54.5 -54.5t20 -74.5t-20 -74.5z" />
    <glyph glyph-name="ellipsis" unicode="&#x2026;" horiz-adv-x="840" 
d="M62 156h158v-156h-158v156zM341 156h158v-156h-158v156zM620 156h158v-156h-158v156z" />
    <glyph glyph-name="perthousand" unicode="&#x2030;" horiz-adv-x="1240" 
d="M363.5 439q-21.5 -41 -60.5 -65t-89 -24q-49 0 -87.5 23.5t-60 64.5t-21.5 90q0 50 21.5 91t60.5 65t89 24q49 0 87.5 -23.5t60 -64.5t21.5 -90q0 -50 -21.5 -91zM234 0h-119l511 700h119zM261.5 591q-18.5 26 -47.5 26q-30 0 -47 -25t-17 -62t18.5 -63t47.5 -26
q30 0 47 25t17 62t-18.5 63zM793.5 81q-21.5 -41 -60.5 -65t-89 -24q-49 0 -87.5 23.5t-60 64.5t-21.5 90q0 50 21.5 91t60.5 65t89 24q49 0 87.5 -23.5t60 -64.5t21.5 -90q0 -50 -21.5 -91zM1173.5 81q-21.5 -41 -60.5 -65t-89 -24q-49 0 -87.5 23.5t-60 64.5t-21.5 90
q0 50 21.5 91t60.5 65t89 24q49 0 87.5 -23.5t60 -64.5t21.5 -90q0 -50 -21.5 -91zM691.5 233q-18.5 26 -47.5 26q-30 0 -47 -25t-17 -62t18.5 -63t47.5 -26q30 0 47 25t17 62t-18.5 63zM1071.5 233q-18.5 26 -47.5 26q-30 0 -47 -25t-17 -62t18.5 -63t47.5 -26q30 0 47 25
t17 62t-18.5 63z" />
    <glyph glyph-name="guilsinglleft" unicode="&#x2039;" horiz-adv-x="373" 
d="M195 269l130 -171l-116 -58l-168 224v8l168 224l116 -56z" />
    <glyph glyph-name="guilsinglright" unicode="&#x203a;" horiz-adv-x="373" 
d="M178 267l-130 171l116 58l168 -224v-8l-168 -224l-116 56z" />
    <glyph glyph-name="fraction" unicode="&#x2044;" horiz-adv-x="480" 
d="M63 -98h-134l466 856h134z" />
    <glyph glyph-name="trademark" unicode="&#x2122;" horiz-adv-x="690" 
d="M118 392v246h-92v62h254v-62h-92v-246h-70zM496 465l-85 135v-208h-66v308h74l81 -130l81 130h72v-308h-66v208l-85 -135h-6z" />
    <glyph glyph-name="radical" unicode="&#x221a;" horiz-adv-x="1066" 
d="M367 406h-121v-406h-152v406h-63v125h63v34q0 172 166 172q61 0 108 -15v-126q-36 13 -69 13q-55 0 -55 -58v-21h123v-124zM749 406h-121v-406h-152v406h-63v125h63v34q0 172 166 172q61 0 108 -15v-126q-36 13 -69 13q-55 0 -55 -58v-21h123v-124zM839 730h152v-730
h-152v730z" />
    <glyph glyph-name="approxequal" unicode="&#x2248;" horiz-adv-x="1066" 
d="M367 406h-121v-406h-152v406h-63v125h63v34q0 172 166 172q61 0 108 -15v-126q-36 13 -69 13q-55 0 -55 -58v-21h123v-124zM749 406h-121v-406h-152v406h-63v125h63v34q0 172 166 172q61 0 108 -15v-126q-36 13 -69 13q-55 0 -55 -58v-21h123v-124zM835 730h160v-135
h-160v135zM839 536h152v-536h-152v536z" />
    <glyph glyph-name="uniF8FF" unicode="&#xf8ff;" horiz-adv-x="967" 
d="M101 750h767v-750h-767v750zM559 690.5q0 3.5 -1 7.5q-2 -1 -17 -1t-18 1l-1 -12h2q1 1 3.5 5t6.5 4q3 0 3 -3v-23q0 -4 -2 -4.5t-3 -0.5v-2h17v2q-1 0 -3 0.5t-2 4.5v23q0 3 3 3q4 0 7 -4t3 -5h2v4.5zM436 664.5q-2 0.5 -2 4.5v21q0 4 2 4.5t3 0.5v2h-29l-2 -10l2 -1
q0 1 2.5 4.5t6.5 3.5h4q4 0 4 -3v-10h-4q-4 0 -5 2t-1 3h-2v-13h2q0 1 1 3.5t5 2.5h4v-11q0 -3 -4 -3h-4q-4 0 -7 4t-3 5l-2 -1l2 -11h30v2q-1 0 -3 0.5zM500.5 664.5q-2.5 0.5 -2.5 4.5v21q0 4 2.5 4.5t3.5 0.5v2h-18v-2q1 0 3 -0.5t2 -4.5v-9h-17v9q0 4 2 4.5t3 0.5v2h-17
v-2q1 0 3 -0.5t2 -4.5v-21q0 -3 -2 -4t-3 -1v-2h17v2q-1 0 -3 1t-2 4v10h17v-10q0 -4 -2 -4.5t-3 -0.5v-2h18v2q-1 0 -3.5 0.5zM142 624v-6h685v6h-685zM281 554q5 3 5 9q0 5 -5.5 10t-15.5 5q-6 0 -9.5 -3t-3.5 -8q0 -6 5 -6q4 0 4 3q0 2 -1.5 3.5t-1.5 2.5q0 5 7 5
q10 0 10 -12q0 -4 -2 -6h-5q-11 0 -11 -6q0 -2 2.5 -4t5.5 -2q6 0 11 5q6 -4 6 -15q0 -14 -12 -14q-5 0 -8.5 2.5t-3.5 6.5q0 3 3 3q1 0 2 -1t3 -1q4 0 4 5t-7 5q-4 0 -6.5 -3t-2.5 -7q0 -5 4.5 -9t11.5 -4q12 0 18.5 5.5t6.5 13.5q0 12 -14 17zM396.5 526.5
q-3.5 2.5 -9.5 3.5q-4 2 -5.5 16.5t-5.5 23t-18 8.5q-5 0 -9 -3.5t-4 -6.5q0 -5 5 -5q3 0 3.5 1.5t0.5 4.5q0 6 5 6q6 0 8 -10.5t4 -19.5t9 -15q-8 0 -14 -6.5t-9 -6.5q-5 0 -5 4q0 2 1 3t1 2q0 5 -5 5t-5 -7q0 -4 5 -8t10 -4q10 0 15 6.5t10 6.5q4 -7 12 -7q4 0 4 3
t-3.5 5.5zM575 554q5 3 5 9q0 5 -5.5 10t-15.5 5q-6 0 -9.5 -3t-3.5 -8q0 -6 5 -6q4 0 4 3q0 2 -1.5 3.5t-1.5 2.5q0 5 7 5q10 0 10 -12q0 -4 -2 -6h-5q-11 0 -11 -6q0 -2 2.5 -4t5.5 -2q6 0 11 5q6 -4 6 -15q0 -14 -12 -14q-5 0 -8.5 2.5t-3.5 6.5q0 3 3 3q1 0 2 -1t3 -1
q4 0 4 5t-7 5q-4 0 -6.5 -3t-2.5 -7q0 -5 4.5 -9t11.5 -4q12 0 18.5 5.5t6.5 13.5q0 12 -14 17zM684.5 566.5q-11.5 11.5 -25.5 11.5q-8 0 -15.5 -5.5t-7.5 -16.5q0 -15 11.5 -26.5t25.5 -11.5q8 0 15.5 5.5t7.5 16.5q0 15 -11.5 26.5zM197 523q-4 1 -5 7l-7 35v2q0 4 3 5
t4 1l-1 3h-27q-20 0 -20 -15q0 -6 5.5 -10t13.5 -5l-9 -16q-3 -6 -7.5 -7t-6.5 -1l1 -3h19l12 23q2 3 5 3l3 -15v-2q0 -4 -3 -5t-4 -1l1 -3h29l-1 3q-1 0 -5 1zM492 523q-4 1 -5 7l-7 35v2q0 4 3 5t4 1l-1 3h-45q1 -4 0.5 -9.5t-0.5 -7.5h4q0 4 2 8.5t11 4.5h4q5 0 6 -6
l3 -16h-4q-6 0 -9 4t-3 5h-3l5 -23h3v1q0 10 8 10h4l3 -17v-2q0 -4 -3 -5t-4 -1l1 -3h29l-1 3q-1 0 -5 1zM815 523q-4 1 -5 7l-7 35v2q0 4 3 5t4 1l-1 3h-28l1 -3q1 0 4.5 -1t4.5 -7l3 -15h-24l-3 15v2q0 4 3 5t4 1l-1 3h-29l1 -3q1 0 5 -1t5 -7l7 -35v-2q0 -4 -3 -5t-4 -1
l1 -3h29l-1 3q-1 0 -5 1t-5 7l-3 16h24l3 -16v-2q0 -4 -3 -5t-4 -1l1 -3h29l-1 3q-1 0 -5 1zM673 522q-9 0 -17 11.5t-8 26.5q0 14 11 14q9 0 17 -12t8 -27q0 -13 -11 -13zM160 553q-4 5 -4 10q0 9 8 9t9 -5l3 -19h-5q-7 0 -11 5zM265 549q-4 0 -4 2q0 3 4 3q5 0 7 -1
q-3 -4 -7 -4zM559 549q-4 0 -4 2q0 3 4 3q5 0 7 -1q-3 -4 -7 -4zM142 481v-6h685v6h-685zM269 341v65h14v34h-141v-62h41v28h33v-20h-24v-24h24v-21h-33v28h-41v-61h141v33h-14zM444 341v65h14v34h-96q-21 0 -34 -11.5t-13 -28.5q0 -18 13 -29t34 -11h30v-19h-15v-33h81v33
h-14zM567 440v-34h11l-15 -23l-15 23h10v34h-62v-34h12l37 -46v-19h-14v-33h81v33h-15v20l37 45h14v34h-81zM680 440v-62h36v28h11v-65h-14v-33h81v33h-14v65h11v-28h36v62h-147zM368 395q0 11 13 11h11v-22h-11q-13 0 -13 11zM142 277v-6h685v6h-685zM195.5 227
q-3.5 3 -10.5 3q-15 0 -14 -23q-7 23 -21 23q-5 0 -8.5 -3t-3.5 -9l3 -1q0 6 8 6q16 0 24 -33q1 -3 1 -7q0 -6 -3 -7t-4 -1l1 -4h28l-1 4h-1q-7 0 -9 9q-5 17 -5 25q0 13 9 13q5 0 12 -7l2 2q-4 7 -7.5 10zM716.5 218.5q-11.5 11.5 -25.5 11.5q-8 0 -15.5 -5.5t-7.5 -16.5
q0 -15 11.5 -26.5t25.5 -11.5q8 0 15.5 5.5t7.5 16.5q0 15 -11.5 26.5zM301 175q-4 1 -5 7l-7 35v2q0 4 3 5t4 1l-1 3h-27q-20 0 -20 -15q0 -6 5.5 -10t13.5 -5l-9 -16q-3 -6 -7.5 -7t-6.5 -1l1 -3h19l12 23q2 3 5 3l3 -15v-2q0 -4 -3 -5t-4 -1l1 -3h29l-1 3q-1 0 -5 1z
M412 175q-7 0 -9 9l-8 31l-1 4q0 5 9 6l-1 3h-30q-10 0 -17.5 -5.5t-7.5 -16.5q0 -15 11 -25t24 -10h32l-1 4h-1zM518 176q-3 2 -5 8l-7 32v2q0 5 3.5 6t4.5 1l-1 3h-14l-29 -42l-5 30v2q0 4 3 5.5t4 1.5l-1 3h-21l1 -3q1 0 4.5 -1.5t4.5 -7.5l8 -45l3 -1l30 44l6 -30v-3
q0 -5 -2.5 -6t-3.5 -1l1 -3h21l-1 3q-1 0 -4 2zM591 228l1 -3q1 0 5 -1.5t5 -7.5l5 -21q2 -8 2 -11q0 -9 -13 -9q-14 0 -20 22l-4 19v3q0 5 3 5.5t4 0.5v3h-24l1 -3q1 0 5.5 -1.5t5.5 -7.5l4 -19q2 -10 9 -18.5t19 -8.5q20 0 20 15q0 6 -1 9l-5 22l-1 3q0 5 4 5.5t5 0.5
l-1 3h-29zM817 175q-4 1 -5 7l-7 35v2q0 4 3 5t4 1l-1 3h-45q1 -4 0.5 -9.5t-0.5 -7.5h4q0 4 2 8.5t11 4.5h4q5 0 6 -6l3 -16h-4q-6 0 -9 4t-3 5h-3l5 -23h3v1q0 10 8 10h4l3 -17v-2q0 -4 -3 -5t-4 -1l1 -3h29l-1 3q-1 0 -5 1zM705 174q-9 0 -17 11.5t-8 26.5q0 14 11 14
q9 0 17 -12t8 -27q0 -13 -11 -13zM264 205q-4 5 -4 10q0 9 8 9t9 -5l3 -19h-5q-7 0 -11 5zM389 175h-5q-11 0 -18.5 10t-7.5 22q0 17 14 17h6q2 0 3.5 -1.5t2.5 -5.5l9 -35q0 -7 -4 -7zM142 133v-6h685v6h-685zM419.5 77q-5.5 5 -14.5 5t-14.5 -5t-5.5 -13t5.5 -13.5
t14.5 -5.5t14.5 5.5t5.5 13.5t-5.5 13zM305.5 49.5q-2.5 1.5 -2.5 4.5v20q0 3 2.5 4t3.5 1v2h-18v-2q1 0 3.5 -1t2.5 -4v-9q-2 0 -4 2l-8 8q-2 2 -1 3t2 1v2h-14v-2q1 0 3.5 -1t4.5 -3l10 -9l-13 -13l-7 -5v-2h17v2q-1 0 -2.5 1t0.5 4l8 8q2 2 4 2v-9q0 -4 -2.5 -5t-3.5 -1
v-2h18v2q-1 0 -3.5 1.5zM361 49q-2 1 -2 4v20q0 4 2 5t3 1v2h-18q-6 0 -9.5 -2.5t-3.5 -6.5q0 -5 9 -9l-7 -10q-2 -3 -4.5 -4t-3.5 -1v-2h11l7 12q2 2 3.5 3t3.5 1v-9q0 -3 -2 -4t-3 -1v-2h17v2q-1 0 -3 1zM465 81v-2q1 0 2 -1t-1 -4l-6 -9l-6 9q-2 3 0 4t3 1v2h-15v-2
q1 0 3.5 -1t4.5 -4l8 -12v-8q0 -4 -2 -5t-3 -1v-2h17v2q-1 0 -3 1t-2 5v8l8 12q2 3 4 4t3 1v2h-15zM568 79q1 0 2 -1t0 -4l-9 -19l-5 10l4 8q2 3 3.5 4.5t2.5 1.5v2h-26l1 -2q1 0 3 -1t4 -5l3 -5l-7 -13l-8 18q-1 3 0 4.5t2 1.5v2h-13v-2q1 0 3 -1.5t3 -4.5l13 -27h1
l0.5 -0.5t0.5 0.5l8 16l9 -16h1l12 27q2 4 4 5t3 1v2h-15v-2zM630 48.5q-2 0.5 -2 4.5v21q0 4 2 4.5t3 0.5v2h-29l-2 -10l2 -1q0 1 2.5 4.5t6.5 3.5h4q4 0 4 -3v-10h-4q-4 0 -5 2t-1 3h-2v-13h2q0 1 1 3.5t5 2.5h4v-11q0 -3 -4 -3h-4q-4 0 -7 4t-3 5l-2 -1l2 -11h30v2
q-1 0 -3 0.5zM690.5 49.5q-2.5 1.5 -2.5 3.5v20q0 2 2.5 4t3.5 2v2h-10l-24 -26v18q0 3 2.5 4.5t3.5 1.5v2h-15v-2q1 0 3.5 -1.5t2.5 -4.5v-28h3l25 28v-20q0 -2 -2 -3.5t-3 -1.5v-2h14v2q-1 0 -3.5 1.5zM405 47q-6 0 -9 5t-3 12q0 16 12 16t12 -16q0 -17 -12 -17z
M555.5 76.5q-0.5 -2.5 -2.5 -6.5q-5 9 0 9q3 0 2.5 -2.5zM349 64q-8 0 -8 8q0 6 7 6q4 0 4 -4v-10h-3zM142 -105l-11 23l-10 -23h-1l-12 34l6 1l7 -23l10 23h1l10 -23l7 22h6l-12 -34h-1zM198 -105l-11 23l-10 -23h-1l-12 34l6 1l7 -23l10 23h1l10 -23l7 22h6l-12 -34h-1z
M254 -105l-11 23l-10 -23h-1l-12 34l6 1l7 -23l10 23h1l10 -23l7 22h6l-12 -34h-1zM351 -104h-6v14l-14 19l6 1l11 -15l9 14h7l-13 -19v-14zM383 -94v-10h-6v33h6q17 0 17 -11q0 -12 -17 -12zM442 -100q-5 -5 -12 -5t-12 5t-5 12q0 8 5 13t13 5q7 0 11.5 -5t4.5 -12
q0 -8 -5 -13zM478 -105q-8 0 -13 5t-5 12q0 8 5.5 13t13.5 5q6 0 12 -4l-2 -5q-4 4 -11 4q-5 0 -8.5 -3.5t-3.5 -9.5q0 -5 4 -8.5t9 -3.5q2 0 6 2v7h-9v5h15v-15q-6 -4 -13 -4zM519 -93h-5v-11h-6v33h7q16 0 16 -10q0 -7 -7 -10l10 -13h-7zM566 -96h-14l-3 -8h-6l15 34h2
l16 -34h-6zM595 -94v-10h-6v33h6q17 0 17 -11q0 -12 -17 -12zM689 -104h-6v14l-14 19l6 1l11 -15l9 14h7l-13 -19v-14zM747 -105q-8 0 -13 4.5t-5 12.5q0 7 5.5 12.5t12.5 5.5t11 -3l-2 -5q-3 3 -9 3q-5 0 -8.5 -3.5t-3.5 -8.5q0 -13 13 -13q4 0 10 4l-1 -6q-3 -3 -10 -3z
M801 -100q-5 -5 -12 -5t-12 5t-5 12q0 8 5 13t13 5q7 0 11.5 -5t4.5 -12q0 -8 -5 -13zM850 -84l-10 -21h-2l-10 21l-3 -20h-6l6 34h1l13 -26l13 26h1l6 -34h-6zM311 -76v-28h-6v28h-12v5h30v-5h-12zM650 -89h-16v-15h-6v33h6v-13h16v13h6v-33h-6v15zM430 -75q-5 0 -8 -3.5
t-3 -8.5q0 -6 3 -9.5t8 -3.5t8 3.5t3 8.5q0 13 -11 13zM789 -75q-5 0 -8 -3.5t-3 -8.5q0 -6 3 -9.5t8 -3.5t8 3.5t3 8.5q0 13 -11 13zM383 -76v-13q11 0 11 6q0 8 -11 7zM522 -76.5q-3 1.5 -8 0.5v-12h3q8 0 8 6q0 4 -3 5.5zM595 -76v-13q11 0 11 6q0 8 -11 7zM554 -92h10
l-5 12zM280 -105q-4 0 -4 4t4 4t4 -4t-4 -4zM712 -105q-4 0 -4 4t4 4t4 -4t-4 -4z" />
    <glyph glyph-name="fi" unicode="&#xfb01;" horiz-adv-x="684" 
d="M367 406h-121v-406h-152v406h-63v125h63v34q0 172 166 172q61 0 108 -15v-126q-36 13 -69 13q-55 0 -55 -58v-21h123v-124zM453 730h160v-135h-160v135zM457 536h152v-536h-152v536z" />
    <glyph glyph-name="fl" unicode="&#xfb02;" horiz-adv-x="684" 
d="M367 406h-121v-406h-152v406h-63v125h63v34q0 172 166 172q61 0 108 -15v-126q-36 13 -69 13q-55 0 -55 -58v-21h123v-124zM457 730h152v-730h-152v730z" />
    <glyph glyph-name="NUL" horiz-adv-x="0" 
 />
    </font>
</defs>
</svg>
