<?xml version="1.0" standalone="no"?>
<!DOCTYPE svg PUBLIC "-//W3C//DTD SVG 1.1//EN" "http://www.w3.org/Graphics/SVG/1.1/DTD/svg11.dtd" >
<svg xmlns="http://www.w3.org/2000/svg" xmlns:xlink="http://www.w3.org/1999/xlink" version="1.1">
<metadata>
Created by FontForge 20190801 at Thu Sep 23 07:34:35 2010
 By www-data
Copyright (c) 2009 by Jean-Francois Rappo. All rights reserved.
</metadata>
<defs>
<font id="ClarinsIta" horiz-adv-x="495" >
  <font-face 
    font-family="ClarinsIta"
    font-weight="400"
    font-stretch="normal"
    units-per-em="1000"
    panose-1="2 0 5 6 0 0 0 2 0 3"
    ascent="686"
    descent="-314"
    x-height="428"
    cap-height="658"
    bbox="-160 -254 1209 1034"
    underline-thickness="50"
    underline-position="-100"
    unicode-range="U+0020-FB04"
  />
<missing-glyph horiz-adv-x="452" 
 />
    <glyph glyph-name="IJ" unicode="IJ" horiz-adv-x="621" 
d="M165 98q-2 -11 -3 -20.5t-1 -16.5q0 -16 5 -25.5t14.5 -15t22.5 -8.5t29 -4l-2 -8h-39t-29.5 0.5t-25 0.5h-24.5q-17 0 -48 -0.5t-71 -0.5l2 8q19 2 34.5 5.5t27.5 13t20.5 26t14.5 45.5q22 113 45.5 230.5t44.5 230.5q2 11 3 20t1 16q0 33 -19.5 42.5t-51.5 12.5l2 8
q23 -1 49 -1.5t69 -0.5q29 0 58.5 0.5t61.5 1.5l-2 -8q-20 -2 -36 -5.5t-28 -13t-20.5 -26.5t-14.5 -45zM528 232q-9 -47 -22.5 -93t-36 -82t-55.5 -58t-82 -22q-56 0 -77.5 21t-21.5 48q0 17 10 27.5t30 10.5q38 0 38 -31q0 -7 -0.5 -13t-0.5 -14q0 -13 5 -25.5t28 -12.5
q24 0 40.5 17t28.5 46.5t20.5 69t17.5 84.5l70 356q2 12 3 20t1 16q0 31 -22 40t-63 12l1 9q9 0 25 -0.5t34 -1t37 -0.5h35q36 0 66 0.5t49 1.5l-1 -9q-20 -2 -35 -5.5t-26.5 -12.5t-19.5 -25t-13 -44z" />
    <glyph glyph-name="ij" unicode="ij" horiz-adv-x="483" 
d="M114 334q2 8 3 15t1 14q0 21 -18 33.5t-60 17.5l2 9q48 1 76 2t43.5 2t22 1h10.5l-8 -37q-7 -32 -15.5 -70.5t-19.5 -95.5l-13 -63q-7 -32 -13 -61.5t-6 -43.5q0 -23 16 -23q7 0 17.5 5t21.5 13t22.5 18.5t21.5 21.5l7 -7q-11 -14 -26 -30.5t-32.5 -30.5t-37.5 -23.5
t-40 -9.5q-19 0 -26.5 10t-7.5 27q0 12 2.5 29t5.5 32zM145 638q0 19 13 32t32 13t32 -13t13 -32t-13 -32t-32 -13t-32 13t-13 32zM373 334q2 8 3 15t1 14q0 21 -18 33.5t-60 17.5l2 9q48 1 76 2t43.5 2t22 1h10.5q-7 -27 -12.5 -52t-10.5 -49t-9.5 -49t-10.5 -53l-43 -221
q-9 -47 -23 -88.5t-35 -73.5t-49.5 -50.5t-66.5 -18.5q-50 0 -69 18t-19 42q0 17 9.5 26.5t28.5 9.5q33 0 33 -28q0 -6 -0.5 -13t-0.5 -11q0 -13 4.5 -22.5t24.5 -9.5q23 0 38.5 16t26 42.5t18 61t14.5 70.5zM404 638q0 19 13 32t32 13t32 -13t13 -32t-13 -32t-32 -13
t-32 13t-13 32z" />
    <glyph glyph-name="napostrophe" unicode="&#x22;n" horiz-adv-x="502" 
d="M507 629q0 -24 -10 -48.5t-27 -45.5t-38.5 -38t-44.5 -27l-4 7q16 10 32.5 24.5t29.5 32t21 35.5t8 35v4q-2 -2 -9 -4.5t-19 -2.5q-20 0 -33.5 12t-13.5 35q0 22 14 35t36 13q29 0 43.5 -19.5t14.5 -47.5zM164 251h5q12 29 31 61t44.5 59t56.5 44.5t66 17.5q34 0 48 -17
t14 -47q0 -17 -3.5 -35t-7.5 -35l-33 -143q-6 -29 -12 -56t-6 -42q0 -11 3 -17.5t13 -6.5q6 0 16.5 5t22 13t23 18.5t21.5 21.5l7 -7q-11 -14 -26 -30.5t-32.5 -30.5t-37 -23.5t-38.5 -9.5q-38 0 -38 42q0 14 3 31.5t7 33.5l51 229q4 19 4 31q0 16 -8 26t-28 10
q-36 0 -67.5 -29.5t-57 -73.5t-43 -95t-24.5 -94q-5 -26 -10 -51t-10 -51h-59q5 21 10 47q5 22 10.5 50t11.5 58l36 188q1 5 1.5 10t0.5 9q0 29 -22.5 38.5t-54.5 13.5l2 9q68 2 105 3t47 2z" />
    <glyph glyph-name="f_f" unicode="ff" horiz-adv-x="498" 
d="M377 407h-188l-80 -403q-9 -48 -24 -90t-36 -73.5t-50 -49.5t-67 -18q-51 0 -71.5 18.5t-20.5 42.5q0 35 37 35q34 0 34 -29q0 -4 -0.5 -12t-0.5 -12q0 -10 4.5 -21t25.5 -11q24 0 40.5 16.5t28.5 43t20.5 61t15.5 70.5l84 432h-82l4 19l82 -1q9 43 23.5 89.5t39.5 84
t61 62t87 24.5t78 -19t29 -42q22 32 52.5 51.5t75.5 19.5q55 0 79.5 -19.5t24.5 -45.5q0 -36 -37 -36q-34 0 -34 28q0 5 0.5 11t0.5 11q0 14 -7.5 25t-33.5 11q-31 0 -52 -21t-35 -53t-23 -72t-16 -77l-6 -32q29 0 60.5 0.5t60.5 0.5l-5 -19h-119l-80 -403q-9 -48 -24 -90
t-36 -73.5t-50 -49.5t-67 -18q-51 0 -71.5 18.5t-20.5 42.5q0 35 37 35q34 0 34 -29q0 -4 -0.5 -12t-0.5 -12q0 -10 4.5 -21t25.5 -11q24 0 40.5 16.5t28.5 43t20.5 61t15.5 70.5zM381 425q8 40 19 83t30 81q-3 -1 -12 -1q-30 0 -30 26q0 5 0.5 10t0.5 10q0 17 -13.5 26.5
t-36.5 9.5q-32 0 -55 -18t-40 -48.5t-28.5 -71t-19.5 -85.5l-4 -22h189z" />
    <glyph glyph-name="fi" unicode="fi" horiz-adv-x="486" 
d="M348 334q2 8 3 15t1 15q0 21 -14 32t-48 11h-101l-80 -403q-9 -48 -24 -90t-36 -73.5t-50 -49.5t-67 -18q-51 0 -71.5 18.5t-20.5 42.5q0 35 37 35q34 0 34 -29q0 -4 -0.5 -12t-0.5 -12q0 -10 4.5 -21t25.5 -11q24 0 40.5 16.5t28.5 43t20.5 61t15.5 70.5l84 432h-82
l4 19l82 -1q9 43 23.5 91t38.5 87.5t59.5 65.5t86.5 26q54 0 81.5 -19.5t27.5 -45.5q0 -36 -37 -36q-34 0 -34 28q0 5 0.5 11t0.5 11q0 14 -10.5 25t-35.5 11q-32 0 -54.5 -21t-38 -53t-26 -72t-17.5 -77l-6 -32h126q30 1 59.5 1t50.5 2l-8 -37q-7 -32 -15.5 -70.5
t-19.5 -95.5l-13 -63q-7 -32 -13 -61.5t-6 -43.5q0 -23 16 -23q7 0 17.5 5t21.5 13t22.5 18.5t21.5 21.5l7 -7q-11 -14 -26 -30.5t-32.5 -30.5t-37.5 -23.5t-40 -9.5q-19 0 -26.5 10t-7.5 27q0 12 2.5 29t5.5 32z" />
    <glyph glyph-name="fl" unicode="fl" horiz-adv-x="484" 
d="M192 425q29 0 60.5 0.5t60.5 0.5l-5 -19h-119l-80 -403q-9 -48 -24 -90t-36 -73.5t-50 -49.5t-67 -18q-51 0 -71.5 18.5t-20.5 42.5q0 35 37 35q34 0 34 -29q0 -4 -0.5 -12t-0.5 -12q0 -10 4.5 -21t25.5 -11q24 0 40.5 16.5t28.5 43t20.5 61t15.5 70.5l84 432h-82l4 19
l82 -1q9 43 23.5 91t38.5 87.5t59.5 65.5t86.5 26q24 0 43 -4.5t33 -12.5l40 6t25 3l-8 -37q-7 -32 -15.5 -70.5t-19.5 -95.5l-66 -322q-7 -32 -13 -61.5t-6 -43.5q0 -23 16 -23q7 0 17.5 5t21.5 13t22.5 18.5t21.5 21.5l7 -7q-11 -14 -26 -30.5t-32.5 -30.5t-37.5 -23.5
t-40 -9.5q-19 0 -26.5 10t-7.5 28q0 11 2.5 29.5t7.5 41.5l102 493v3q-17 4 -17 26q0 5 0.5 10.5t0.5 10.5q0 14 -11.5 25.5t-40.5 11.5q-32 0 -54.5 -21t-38 -53t-26 -72t-17.5 -77z" />
    <glyph glyph-name="f_f_i" unicode="ffi" horiz-adv-x="734" 
d="M377 407h-188l-80 -403q-9 -48 -24 -90t-36 -73.5t-50 -49.5t-67 -18q-51 0 -71.5 18.5t-20.5 42.5q0 35 37 35q34 0 34 -29q0 -4 -0.5 -12t-0.5 -12q0 -10 4.5 -21t25.5 -11q24 0 40.5 16.5t28.5 43t20.5 61t15.5 70.5l84 432h-82l4 19l82 -1q9 43 24.5 89.5t41 84
t62.5 62t88 24.5q50 0 77.5 -18t30.5 -41q23 31 55.5 50t76.5 19q54 0 81.5 -19.5t27.5 -45.5q0 -36 -37 -36q-34 0 -34 28q0 5 0.5 11t0.5 11q0 14 -10.5 25t-35.5 11q-32 0 -54.5 -21t-38 -53t-26 -72t-17.5 -77l-6 -32h126q30 1 59.5 1t50.5 2l-8 -37q-7 -32 -15.5 -70.5
t-19.5 -95.5l-13 -63q-7 -32 -13 -61.5t-6 -43.5q0 -23 16 -23q7 0 17.5 5t21.5 13t22.5 18.5t21.5 21.5l7 -7q-11 -14 -26 -30.5t-32.5 -30.5t-37.5 -23.5t-40 -9.5q-19 0 -26.5 10t-7.5 27q0 12 2.5 29t5.5 32l51 245q2 8 3 15t1 15q0 21 -14 32t-48 11h-101l-80 -403
q-9 -48 -24 -90t-36 -73.5t-50 -49.5t-67 -18q-51 0 -71.5 18.5t-20.5 42.5q0 35 37 35q34 0 34 -29q0 -4 -0.5 -12t-0.5 -12q0 -10 4.5 -21t25.5 -11q24 0 40.5 16.5t28.5 43t20.5 61t15.5 70.5zM192 425h189q8 39 20.5 82t32.5 81h-9q-30 0 -30 26q0 5 0.5 10t0.5 10
q0 17 -15 26.5t-38 9.5q-32 0 -55.5 -18t-41 -48.5t-30 -71t-20.5 -85.5z" />
    <glyph glyph-name="f_f_l" unicode="ffl" horiz-adv-x="733" 
d="M377 407h-188l-80 -403q-9 -48 -24 -90t-36 -73.5t-50 -49.5t-67 -18q-51 0 -71.5 18.5t-20.5 42.5q0 35 37 35q34 0 34 -29q0 -4 -0.5 -12t-0.5 -12q0 -10 4.5 -21t25.5 -11q24 0 40.5 16.5t28.5 43t20.5 61t15.5 70.5l84 432h-82l4 19l82 -1q9 43 24.5 89.5t41 84
t62.5 62t88 24.5q50 0 77.5 -18t30.5 -41q23 31 55.5 50t76.5 19q24 0 43 -4.5t33 -12.5l40 6t25 3l-8 -37q-7 -32 -15.5 -70.5t-19.5 -95.5l-66 -322q-7 -32 -13 -61.5t-6 -43.5q0 -23 16 -23q7 0 17.5 5t21.5 13t22.5 18.5t21.5 21.5l7 -7q-11 -14 -26 -30.5t-32.5 -30.5
t-37.5 -23.5t-40 -9.5q-19 0 -26.5 10t-7.5 28q0 11 2.5 29.5t7.5 41.5l102 493v3q-17 4 -17 26q0 5 0.5 10.5t0.5 10.5q0 14 -11.5 25.5t-40.5 11.5q-32 0 -54.5 -21t-38 -53t-26 -72t-17.5 -77l-6 -32q29 0 60.5 0.5t60.5 0.5l-5 -19h-119l-80 -403q-9 -48 -24 -90
t-36 -73.5t-50 -49.5t-67 -18q-51 0 -71.5 18.5t-20.5 42.5q0 35 37 35q34 0 34 -29q0 -4 -0.5 -12t-0.5 -12q0 -10 4.5 -21t25.5 -11q24 0 40.5 16.5t28.5 43t20.5 61t15.5 70.5zM192 425h189q8 39 20.5 82t32.5 81h-9q-30 0 -30 26q0 5 0.5 10t0.5 10q0 17 -15 26.5
t-38 9.5q-32 0 -55.5 -18t-41 -48.5t-30 -71t-20.5 -85.5z" />
    <glyph glyph-name="f_b" unicode="fb" horiz-adv-x="718" 
d="M192 425q29 0 60.5 0.5t60.5 0.5l-5 -19h-119l-80 -403q-9 -48 -24 -90t-36 -73.5t-50 -49.5t-67 -18q-51 0 -71.5 18.5t-20.5 42.5q0 35 37 35q34 0 34 -29q0 -4 -0.5 -12t-0.5 -12q0 -10 4.5 -21t25.5 -11q24 0 40.5 16.5t28.5 43t20.5 61t15.5 70.5l84 432h-82l4 19
l82 -1q9 43 23.5 91t38.5 87.5t59.5 65.5t86.5 26q24 0 42.5 -4.5t32.5 -12.5q20 4 40 7t25 3q-1 -4 -2 -9t-2 -10.5t-3 -11.5q-5 -23 -11 -51.5t-12.5 -60t-13.5 -64.5t-13 -64l-26 -122l4 -1q9 18 24.5 42t38 45.5t51 36.5t61.5 15q48 0 74.5 -31t26.5 -88q0 -35 -8.5 -72
t-24 -72.5t-38 -67.5t-50.5 -56q-31 -26 -67.5 -41.5t-79.5 -15.5q-58 0 -84.5 21.5t-26.5 63.5q0 17 4.5 43.5t9.5 49.5l87 428v2q-15 4 -15 25q0 5 0.5 10.5t0.5 10.5q0 14 -11.5 25.5t-40.5 11.5q-32 0 -54.5 -21t-38 -53t-26 -72t-17.5 -77zM407 269
q-10 -21 -19.5 -47.5t-17 -53.5t-12 -51.5t-4.5 -41.5q0 -31 14 -49.5t48 -18.5q43 0 78.5 30.5t61 76t39 99t13.5 98.5q0 42 -16 65t-48 23q-41 0 -75.5 -37t-61.5 -93z" />
    <glyph glyph-name="f_h" unicode="fh" horiz-adv-x="727" 
d="M192 425q29 0 60.5 0.5t60.5 0.5l-5 -19h-119l-80 -403q-9 -48 -24 -90t-36 -73.5t-50 -49.5t-67 -18q-51 0 -71.5 18.5t-20.5 42.5q0 35 37 35q34 0 34 -29q0 -4 -0.5 -12t-0.5 -12q0 -10 4.5 -21t25.5 -11q24 0 40.5 16.5t28.5 43t20.5 61t15.5 70.5l84 432h-82l4 19
l82 -1q9 43 23.5 91t38.5 87.5t59.5 65.5t86.5 26q24 0 42.5 -4.5t32.5 -12.5q22 3 43 6.5t26 3.5q-1 0 -5 -16.5t-10.5 -43.5t-14.5 -62t-15 -72q-8 -40 -12.5 -63t-6.5 -35t-3 -16t-2 -7l-28 -122h5q12 29 31 61t44.5 59t56.5 44.5t66 17.5q34 0 48 -17t14 -47
q0 -17 -3.5 -35t-7.5 -35l-33 -143q-6 -29 -12 -56t-6 -42q0 -11 3 -17.5t13 -6.5q6 0 16.5 5t22 13t23 18.5t21.5 21.5l7 -7q-11 -14 -26 -30.5t-32.5 -30.5t-37 -23.5t-38.5 -9.5q-38 0 -38 41q0 11 2.5 26.5t6.5 32.5l52 236q4 19 4 31q0 16 -8 26t-28 10
q-36 0 -67.5 -29.5t-57 -73.5t-43 -95t-24.5 -94q-5 -26 -10 -51t-10 -51h-59q5 21 10 47q5 22 10.5 50t11.5 58l87 440v1q-17 5 -17 26q0 5 0.5 10.5t0.5 10.5q0 14 -11.5 25.5t-40.5 11.5q-32 0 -54.5 -21t-38 -53t-26 -72t-17.5 -77z" />
    <glyph glyph-name="f_k" unicode="fk" horiz-adv-x="681" 
d="M192 425q29 0 60.5 0.5t60.5 0.5l-5 -19h-119l-80 -403q-9 -48 -24 -90t-36 -73.5t-50 -49.5t-67 -18q-51 0 -71.5 18.5t-20.5 42.5q0 35 37 35q34 0 34 -29q0 -4 -0.5 -12t-0.5 -12q0 -10 4.5 -21t25.5 -11q24 0 40.5 16.5t28.5 43t20.5 61t15.5 70.5l84 432h-82l4 19
l82 -1q9 43 23.5 91t38.5 87.5t59.5 65.5t86.5 26q24 0 43 -4.5t33 -12.5q21 3 41.5 6.5t25.5 3.5l-7 -31q-5 -23 -11.5 -51.5t-13 -60t-13.5 -64.5t-13 -64l-83 -417h-60q5 22 10 48q5 22 10.5 49.5l11.5 57.5l88 440v1q-18 4 -18 26q0 5 0.5 10.5t0.5 10.5
q0 14 -11.5 25.5t-40.5 11.5q-32 0 -54.5 -21t-38 -53t-26 -72t-17.5 -77zM666 408q0 -24 -19 -45.5t-46.5 -40.5t-58.5 -35t-55 -28l-20 -10q10 -27 21.5 -56.5t22.5 -57.5q7 -18 15.5 -36.5t18 -33.5t20 -24.5t22.5 -9.5q10 0 20 5t19 12t17 15.5t13 14.5l8 -6
q-25 -38 -53.5 -59t-57.5 -21q-25 0 -41.5 17.5t-32.5 55.5q-11 25 -24.5 63t-25.5 72l-13 37q30 16 63 34.5t59 36.5q24 17 41 33.5t17 43.5v13q0 19 8 29.5t28 10.5q17 0 25.5 -8t8.5 -22z" />
    <glyph glyph-name="f_j" unicode="fj" horiz-adv-x="460" 
d="M348 334q2 8 3 15t1 15q0 21 -14 32t-48 11h-101l-80 -403q-9 -48 -24 -90t-36 -73.5t-50 -49.5t-67 -18q-51 0 -71.5 18.5t-20.5 42.5q0 35 37 35q34 0 34 -29q0 -4 -0.5 -12t-0.5 -12q0 -10 4.5 -21t25.5 -11q24 0 40.5 16.5t28.5 43t20.5 61t15.5 70.5l84 432h-82
l4 19l82 -1q9 43 23.5 91t38.5 87.5t59.5 65.5t86.5 26q54 0 81.5 -19.5t27.5 -45.5q0 -36 -37 -36q-34 0 -34 28q0 5 0.5 11t0.5 11q0 14 -10.5 25t-35.5 11q-32 0 -54.5 -21t-38 -53t-26 -72t-17.5 -77l-6 -32h126q30 1 59.5 1t50.5 2l-8 -37q-7 -32 -15.5 -70.5
t-19.5 -95.5l-44 -221q-9 -47 -23 -88.5t-35 -73.5t-49.5 -50.5t-66.5 -18.5q-50 0 -69 18t-19 42q0 17 9.5 26.5t28.5 9.5q33 0 33 -28q0 -6 -0.5 -13t-0.5 -11q0 -13 4.5 -22.5t24.5 -9.5q23 0 38.5 16t26 42.5t18 61t14.5 70.5z" />
    <glyph glyph-name="f_t" unicode="ft" horiz-adv-x="497" 
d="M192 425h175l11 45q17 4 34 19t26 42h11q-4 -17 -6.5 -29t-5 -23.5t-5.5 -24t-6 -29.5l106 1l-5 -19h-104l-50 -245q-7 -32 -13 -61.5t-6 -43.5q0 -23 16 -23q7 0 17.5 5t21.5 13t22.5 18.5t21.5 21.5l7 -7q-11 -14 -26 -30.5t-32.5 -30.5t-37.5 -23.5t-40 -9.5
q-19 0 -26.5 10t-7.5 28q0 11 2.5 29.5t7.5 41.5l63 307h-174l-80 -403q-9 -48 -24 -90t-36 -73.5t-50 -49.5t-67 -18q-51 0 -71.5 18.5t-20.5 42.5q0 35 37 35q34 0 34 -29q0 -4 -0.5 -12t-0.5 -12q0 -10 4.5 -21t25.5 -11q24 0 40.5 16.5t28.5 43t20.5 61t15.5 70.5
l84 432h-82l4 19l82 -1q9 43 23.5 91t38.5 87.5t59.5 65.5t86.5 26q54 0 81.5 -19.5t27.5 -45.5q0 -36 -37 -36q-34 0 -34 28q0 5 0.5 11t0.5 11q0 14 -10.5 25t-35.5 11q-32 0 -54.5 -21t-38 -53t-26 -72t-17.5 -77z" />
    <glyph glyph-name="f_f_b" unicode="ffb" horiz-adv-x="966" 
d="M377 407h-188l-80 -403q-9 -48 -24 -90t-36 -73.5t-50 -49.5t-67 -18q-51 0 -71.5 18.5t-20.5 42.5q0 35 37 35q34 0 34 -29q0 -4 -0.5 -12t-0.5 -12q0 -10 4.5 -21t25.5 -11q24 0 40.5 16.5t28.5 43t20.5 61t15.5 70.5l84 432h-82l4 19l82 -1q9 43 24.5 89.5t41 84
t62.5 62t88 24.5q50 0 77.5 -18t30.5 -41q23 31 55.5 50t76.5 19q24 0 42.5 -4.5t32.5 -12.5q20 4 40 7t25 3q-1 -4 -2 -9t-2 -10.5t-3 -11.5q-5 -23 -11 -51.5t-12.5 -60t-13.5 -64.5t-13 -64l-26 -122l4 -1q9 18 24.5 42t38 45.5t51 36.5t61.5 15q48 0 74.5 -31t26.5 -88
q0 -35 -8.5 -72t-24 -72.5t-38 -67.5t-50.5 -56q-31 -26 -67.5 -41.5t-79.5 -15.5q-58 0 -84.5 21.5t-26.5 63.5q0 17 4.5 43.5t9.5 49.5l87 428v2q-15 4 -15 25q0 5 0.5 10.5t0.5 10.5q0 14 -11.5 25.5t-40.5 11.5q-32 0 -54.5 -21t-38 -53t-26 -72t-17.5 -77l-6 -32
q29 0 60.5 0.5t60.5 0.5l-5 -19h-119l-80 -403q-9 -48 -24 -90t-36 -73.5t-50 -49.5t-67 -18q-51 0 -71.5 18.5t-20.5 42.5q0 35 37 35q34 0 34 -29q0 -4 -0.5 -12t-0.5 -12q0 -10 4.5 -21t25.5 -11q24 0 40.5 16.5t28.5 43t20.5 61t15.5 70.5zM655 269q-10 -21 -19.5 -47.5
t-17 -53.5t-12 -51.5t-4.5 -41.5q0 -31 14 -49.5t48 -18.5q43 0 78.5 30.5t61 76t39 99t13.5 98.5q0 42 -16 65t-48 23q-41 0 -75.5 -37t-61.5 -93zM192 425h189q8 39 20.5 82t32.5 81h-9q-30 0 -30 26q0 5 0.5 10t0.5 10q0 17 -15 26.5t-38 9.5q-32 0 -55.5 -18t-41 -48.5
t-30 -71t-20.5 -85.5z" />
    <glyph glyph-name="f_f_h" unicode="ffh" horiz-adv-x="975" 
d="M377 407h-188l-80 -403q-9 -48 -24 -90t-36 -73.5t-50 -49.5t-67 -18q-51 0 -71.5 18.5t-20.5 42.5q0 35 37 35q34 0 34 -29q0 -4 -0.5 -12t-0.5 -12q0 -10 4.5 -21t25.5 -11q24 0 40.5 16.5t28.5 43t20.5 61t15.5 70.5l84 432h-82l4 19l82 -1q9 43 24.5 89.5t41 84
t62.5 62t88 24.5q50 0 77.5 -18t30.5 -41q23 31 55.5 50t76.5 19q24 0 42.5 -4.5t32.5 -12.5q22 3 43 6.5t26 3.5q-1 0 -5 -16.5t-10.5 -43.5t-14.5 -62t-15 -72q-8 -40 -12.5 -63t-6.5 -35t-3 -16t-2 -7l-28 -122h5q12 29 31 61t44.5 59t56.5 44.5t66 17.5q34 0 48 -17
t14 -47q0 -17 -3.5 -35t-7.5 -35l-33 -143q-6 -29 -12 -56t-6 -42q0 -11 3 -17.5t13 -6.5q6 0 16.5 5t22 13t23 18.5t21.5 21.5l7 -7q-11 -14 -26 -30.5t-32.5 -30.5t-37 -23.5t-38.5 -9.5q-38 0 -38 41q0 11 2.5 26.5t6.5 32.5l52 236q4 19 4 31q0 16 -8 26t-28 10
q-36 0 -67.5 -29.5t-57 -73.5t-43 -95t-24.5 -94q-5 -26 -10 -51t-10 -51h-59q5 21 10 47q5 22 10.5 50t11.5 58l87 440v1q-17 5 -17 26q0 5 0.5 10.5t0.5 10.5q0 14 -11.5 25.5t-40.5 11.5q-32 0 -54.5 -21t-38 -53t-26 -72t-17.5 -77l-6 -32q29 0 60.5 0.5t60.5 0.5
l-5 -19h-119l-80 -403q-9 -48 -24 -90t-36 -73.5t-50 -49.5t-67 -18q-51 0 -71.5 18.5t-20.5 42.5q0 35 37 35q34 0 34 -29q0 -4 -0.5 -12t-0.5 -12q0 -10 4.5 -21t25.5 -11q24 0 40.5 16.5t28.5 43t20.5 61t15.5 70.5zM192 425h189q8 39 20.5 82t32.5 81h-9q-30 0 -30 26
q0 5 0.5 10t0.5 10q0 17 -15 26.5t-38 9.5q-32 0 -55.5 -18t-41 -48.5t-30 -71t-20.5 -85.5z" />
    <glyph glyph-name=".notdef" horiz-adv-x="452" 
 />
    <glyph glyph-name=".null" horiz-adv-x="0" 
 />
    <glyph glyph-name="nonmarkingreturn" horiz-adv-x="220" 
 />
    <glyph glyph-name="space" unicode=" " horiz-adv-x="220" 
 />
    <glyph glyph-name="space" unicode="&#xa0;" horiz-adv-x="220" 
 />
    <glyph glyph-name="exclam" unicode="!" horiz-adv-x="274" 
d="M124 174q7 72 16 150t17 145t14 114t8 57q9 37 40 37q18 0 30 -10t12 -29q0 -11 -3 -24.5t-5 -23.5l-108 -416h-21zM68 37q0 21 13.5 34.5t34.5 13.5q22 0 35.5 -13.5t13.5 -34.5q0 -22 -13 -35.5t-36 -13.5t-35.5 13.5t-12.5 35.5z" />
    <glyph glyph-name="quotedbl" unicode="&#x22;" horiz-adv-x="386" 
d="M167 453l-16 3l11 173l2 24t4.5 21t10.5 15t20 6q17 0 29 -8.5t12 -23.5q0 -11 -4 -24t-9 -24zM310 453l-16 3l11 173l2 24t4.5 21t10.5 15t20 6q17 0 29 -8.5t12 -23.5q0 -11 -4 -24t-9 -24z" />
    <glyph glyph-name="numbersign" unicode="#" 
d="M313 210h-167l-82 -210h-33l82 210h-109l9 26h110l76 193h-110l9 26h111l71 181h33l-71 -181h167l71 181h33l-71 -181h103l-10 -26h-103l-76 -193h103l-10 -26h-103l-82 -210h-33zM156 236h167l76 193h-167z" />
    <glyph glyph-name="dollar" unicode="$" 
d="M440 474v4q0 69 -24.5 111.5t-86.5 49.5l-48 -268l4 -2l36 -23q22 -15 44 -31t39 -35.5t28 -44.5t11 -57q0 -45 -17 -78.5t-47.5 -57t-72.5 -35.5t-92 -13l-21 -118h-23l21 118q-40 1 -71 8.5t-53 16t-33.5 15.5t-11.5 8l30 153h13q-1 -6 -1 -11v-16q0 -83 35 -118
t95 -38l53 294l-24 15q-28 17 -51 35t-39.5 38t-25.5 44.5t-9 54.5q0 39 16.5 70t45 52.5t67.5 32.5t83 11l19 104h22l-19 -105q41 -2 70.5 -10.5t53.5 -16.5q1 -2 4 1q1 1 2 1l7 -4l-16 -155h-13zM367 158q0 25 -8 44t-21.5 35t-31.5 29.5t-39 27.5l-50 -282q69 3 109.5 43
t40.5 103zM172 516q0 -24 5.5 -42t16.5 -32.5t27.5 -28t39.5 -28.5l46 255q-61 -1 -98 -34t-37 -90z" />
    <glyph glyph-name="percent" unicode="%" horiz-adv-x="877" 
d="M179 180q-28 0 -47 9.5t-31 26.5t-17 40.5t-5 50.5q0 40 9 87t29 87t52.5 66.5t79.5 26.5q28 0 47.5 -9t31.5 -25.5t17 -39t5 -49.5q0 -48 -10 -96t-31 -87t-53.5 -63.5t-76.5 -24.5zM247 559q-35 0 -58 -30.5t-36.5 -74t-19 -90t-5.5 -79.5q0 -42 12 -67t41 -25
q34 0 57 31t36.5 75t19.5 91t6 80q0 42 -11.5 65.5t-41.5 23.5zM583 569h33l-305 -569h-33zM654 -8q-28 0 -47 9.5t-31 26.5t-17 40.5t-5 50.5q0 40 9 87t29 87t52.5 66.5t79.5 26.5q28 0 47.5 -9t31.5 -25.5t17 -39t5 -49.5q0 -48 -10 -96t-31 -87t-53.5 -63.5t-76.5 -24.5
zM722 371q-35 0 -58 -30.5t-36.5 -74t-19 -90t-5.5 -79.5q0 -42 12 -67t41 -25q34 0 57 31t36.5 75t19.5 91t6 80q0 42 -11.5 65.5t-41.5 23.5z" />
    <glyph glyph-name="ampersand" unicode="&#x26;" horiz-adv-x="675" 
d="M594 545q-4 -17 -13.5 -61.5t-21.5 -108.5l-4 -25h123l-3 -19h-125l-39 -193q-3 -17 -5.5 -36.5t-2.5 -30.5q0 -56 56 -56q16 0 29 4.5t21 9.5l4 -7q-13 -11 -33.5 -21t-52.5 -10q-41 0 -63.5 17.5t-22.5 57.5q0 17 3 38t8 45l37 182h-118q-33 0 -58 -1.5t-44 -5.5
t-34 -9.5t-29 -14.5q-20 -13 -34.5 -31t-23.5 -38.5t-13 -42t-4 -42.5q0 -62 37 -97t100 -35q32 0 60 7t55 20l5 -11q-23 -14 -61.5 -27.5t-96.5 -13.5q-85 0 -131 39.5t-46 115.5q0 49 19.5 85t52 60t73.5 36.5t84 15.5v2q-61 2 -101 33.5t-40 93.5q0 43 17 76t46 55
t66.5 33t78.5 11q72 0 107 -21.5t35 -53.5q0 -17 -9.5 -28t-32.5 -11q-18 0 -26 7.5t-8 19.5q0 10 2 17t2 15q0 21 -20.5 30.5t-51.5 9.5q-38 0 -64.5 -15.5t-43 -40t-24 -55.5t-7.5 -61q0 -22 5 -44t18 -35q7 -7 16.5 -12.5t24.5 -9t36 -5.5t52 -2h134q5 25 10 52
q5 23 10 51.5t11 57.5q21 8 38 17t31 17z" />
    <glyph glyph-name="quotesingle" unicode="'" horiz-adv-x="234" 
d="M167 453l-16 3l11 173l2 24t4.5 21t10.5 15t20 6q17 0 29 -8.5t12 -23.5q0 -11 -4 -24t-9 -24z" />
    <glyph glyph-name="parenleft" unicode="(" horiz-adv-x="280" 
d="M127 70q0 -71 9 -123.5t21.5 -89t26 -58.5t23.5 -32l-6 -9q-27 19 -51 49t-41.5 71t-28 94t-10.5 118q0 95 23 190.5t63 178t92.5 145t111.5 91.5l5 -8q-37 -26 -69 -67.5t-58.5 -93.5t-47 -110.5t-34.5 -118.5t-21.5 -118.5t-7.5 -108.5z" />
    <glyph glyph-name="parenright" unicode=")" horiz-adv-x="285" 
d="M162 383q0 71 -9 123.5t-21.5 89t-26 58.5t-23.5 32l6 9q27 -19 51 -49t41.5 -71t28 -94t10.5 -118q0 -95 -23 -190.5t-63 -178t-92.5 -145.5t-111.5 -91l-5 8q37 26 69 67.5t58.5 93.5t47 110.5t34.5 118.5t21.5 118t7.5 109z" />
    <glyph glyph-name="asterisk" unicode="*" horiz-adv-x="368" 
d="M243 494l-15 -146q-8 -2 -22 1.5t-22 9.5l49 138l-129 -63q-6 7 -11 20.5t-5 21.5l144 30l-119 81q2 9 11.5 19.5t17.5 14.5l95 -107l10 142q9 2 23 -0.5t21 -7.5l-44 -136l132 59q6 -7 10.5 -20.5t3.5 -22.5l-142 -26l118 -86q-2 -8 -12 -18t-18 -14z" />
    <glyph glyph-name="plus" unicode="+" horiz-adv-x="576" 
d="M55 252h208v209h40v-209h210v-39h-210v-210h-40v210h-208v39z" />
    <glyph glyph-name="comma" unicode="," horiz-adv-x="228" 
d="M158 18q0 -24 -10 -48.5t-27 -45.5t-38.5 -38t-44.5 -27l-4 7q16 10 32.5 24.5t29.5 32t21 35.5t8 35v4q-2 -2 -9 -4.5t-19 -2.5q-20 0 -33.5 12t-13.5 35q0 22 14 35t36 13q29 0 43.5 -19.5t14.5 -47.5z" />
    <glyph glyph-name="hyphen" unicode="-" horiz-adv-x="305" 
d="M38 256h242l-8 -38h-242z" />
    <glyph glyph-name="period" unicode="." horiz-adv-x="229" 
d="M51 37q0 21 13.5 34.5t34.5 13.5q22 0 35.5 -13.5t13.5 -34.5q0 -22 -13 -35.5t-36 -13.5t-35.5 13.5t-12.5 35.5z" />
    <glyph glyph-name="slash" unicode="/" horiz-adv-x="294" 
d="M323 734h33l-367 -886h-33z" />
    <glyph glyph-name="zero" unicode="0" 
d="M206 -10q-45 0 -76.5 16t-51 44t-28.5 66.5t-9 83.5t6.5 95.5t21 100t37 95t54.5 80t73.5 55t94.5 20.5q46 0 77.5 -15.5t51 -42.5t28.5 -64.5t9 -80.5q0 -80 -17 -160.5t-52.5 -145.5t-89.5 -106t-129 -41zM325 628q-43 0 -75.5 -24.5t-56.5 -64.5t-40 -90.5t-25.5 -103
t-13.5 -102t-4 -86.5q0 -67 22.5 -109t75.5 -42q42 0 74.5 24t56 64t40 90.5t26 103t14 103t4.5 89.5q0 66 -22.5 107t-75.5 41z" />
    <glyph glyph-name="one" unicode="1" 
d="M287 501q6 30 6 43q0 17 -9.5 21t-27.5 4q-13 0 -27.5 -2t-27.5 -4t-23 -4t-14 -3l2 10q52 17 97 34.5t89 37.5h29q-7 -35 -16 -79.5t-18.5 -91t-18 -91.5t-15.5 -80l-39 -200q-4 -20 -4 -36q0 -31 20.5 -39.5t55.5 -11.5l-1 -9h-24.5t-24.5 0.5t-29.5 0.5h-39.5
q-30 0 -67.5 -0.5t-63.5 -0.5l1 9q24 2 42 5.5t31.5 12.5t23 25t14.5 44z" />
    <glyph glyph-name="two" unicode="2" 
d="M108 0q-23 0 -42.5 -0.5t-34.5 -0.5h-33l8 41q63 47 112.5 92.5t96.5 93.5q30 31 57.5 64t48.5 68t33 72t12 76q0 65 -31.5 94t-82.5 29q-42 0 -63 -16t-21 -37q0 -8 2.5 -18.5t2.5 -17.5q0 -13 -9.5 -24t-31.5 -11q-38 0 -38 36q0 20 12.5 38.5t35 33t54 23.5t69.5 9
q37 0 69 -8t55.5 -25t36.5 -45t13 -67q0 -36 -13 -71.5t-35 -70.5t-51 -67.5t-60 -62.5q-35 -33 -71.5 -61.5t-69 -51t-59 -39t-42.5 -26.5v-1h199q40 0 66 3.5t44 13t32 28t29 48.5h9q-13 -42 -22 -73.5t-17 -68.5h-270z" />
    <glyph glyph-name="three" unicode="3" 
d="M278 645q35 0 65.5 -7.5t53.5 -24t36.5 -42t13.5 -60.5q0 -44 -19.5 -75.5t-48 -52.5t-61.5 -32t-60 -14v-2q28 -4 56 -13.5t50 -27t35.5 -43t13.5 -61.5q0 -42 -16 -78.5t-45 -64.5t-71.5 -44t-94.5 -16q-37 0 -65 7.5t-48.5 17.5t-33.5 21t-20 17l8 9q18 -14 50 -30.5
t85 -16.5q43 0 77 15t56.5 40.5t34.5 59t12 70.5q0 64 -38 94t-99 30h-16t-17 -1l4 19q42 1 78.5 11t64 31.5t43 54.5t15.5 80q0 54 -30 83.5t-77 29.5q-42 0 -63 -15t-21 -36q0 -7 2.5 -16.5t2.5 -17.5q0 -12 -9 -22.5t-30 -10.5q-36 0 -36 35q0 18 11 35.5t31.5 31.5
t50.5 23t69 9z" />
    <glyph glyph-name="four" unicode="4" 
d="M340 96q-2 -12 -3 -20.5t-1 -15.5q0 -31 19.5 -39.5t51.5 -11.5l-2 -9h-22.5t-20 0.5t-25 0.5h-37.5q-30 0 -64 -0.5t-60 -0.5l2 9q20 2 35.5 5.5t27.5 12.5t20.5 25t13.5 44l18 95h-273l6 30l19 24q33 41 77.5 93.5t92 106.5t95.5 104t89 85h47q-8 -34 -17 -78.5
t-18.5 -90.5t-18 -90.5t-15.5 -78.5l-12 -62h106l-8 -43h-106zM369 584h-1l-304 -350h237z" />
    <glyph glyph-name="five" unicode="5" 
d="M44 60q6 -5 17.5 -13t29 -15.5t40.5 -13t52 -5.5q43 0 76.5 14.5t56.5 41.5t35 64.5t12 82.5q0 69 -37.5 104t-96.5 35q-33 0 -60 -14t-44 -34l-20 -1l39 163q10 43 19 83t17 80h202q28 0 44 1t27 7q17 8 28 39h10q-7 -29 -14.5 -56.5t-12.5 -44.5h-272l-59 -243
q22 21 54 37t81 16q33 0 63.5 -9.5t54 -30t37 -51t13.5 -72.5q0 -57 -17.5 -101t-49 -74.5t-76.5 -46.5t-99 -16q-35 0 -63 8t-48 19t-32 21t-16 15z" />
    <glyph glyph-name="six" unicode="6" 
d="M366 646q31 0 56.5 -6.5t44 -18.5t28.5 -28.5t10 -35.5q0 -18 -9.5 -31t-31.5 -13q-38 0 -38 28q0 11 2.5 19.5t2.5 19.5q0 19 -16 34.5t-52 15.5q-43 0 -77 -26.5t-59.5 -71.5t-42.5 -104.5t-26 -125.5h2q5 10 17 23t29.5 24t41.5 18.5t53 7.5q70 0 108.5 -44.5
t38.5 -116.5q0 -54 -15.5 -96t-42.5 -70.5t-64 -43t-80 -14.5q-85 0 -126 54t-41 175q0 39 7 86t21.5 94.5t37.5 92t55 79t73 55t93 20.5zM154 272q-2 -12 -4 -27q-3 -26 -3 -73q0 -35 4 -65.5t15.5 -53t30.5 -35t49 -12.5q35 0 60 18t40.5 47t23 64.5t7.5 71.5
q0 69 -27.5 105t-80.5 36q-43 0 -72.5 -24t-42.5 -52z" />
    <glyph glyph-name="seven" unicode="7" 
d="M261 577q-38 0 -56.5 -3.5t-32.5 -11.5q-20 -11 -31 -28t-22 -42h-10q4 14 9 35t9.5 42t9 39t6.5 27q23 -1 56.5 -2t72.5 -1h154h24h28.5t28.5 0.5t24 1.5l-7 -37q-9 -17 -29 -51.5t-46 -79.5t-56.5 -97t-61.5 -104q-72 -121 -157 -265q-14 1 -17 1h-13q-14 0 -28 -0.5
t-19 -0.5l1 6q2 0 5 1.5t6 6.5q20 32 50.5 78t65 97.5t69.5 103t64 95.5q24 36 43.5 64.5t36 51.5t30 40.5t27.5 32.5h-234z" />
    <glyph glyph-name="eight" unicode="8" 
d="M469 518q0 -42 -16.5 -72t-41 -50t-52 -32t-48.5 -17q32 -22 56.5 -42.5t41 -41.5t25 -44.5t8.5 -51.5q0 -81 -54 -129.5t-155 -48.5q-88 0 -136 42t-48 111q0 31 11 56t28 44t38 32.5t41.5 23t38 15.5t28.5 9q-68 41 -94 82t-26 88q0 27 10.5 54.5t33 49.5t58.5 35.5
t87 13.5q83 0 124 -35.5t42 -91.5zM412 517q0 52 -27 82.5t-83 30.5q-60 0 -91 -33.5t-31 -85.5q0 -43 21 -74t72 -65l30 -19q21 11 41 26t35 35t24 45.5t9 57.5zM376 148q0 24 -6.5 43t-19.5 36t-33 34t-47 37l-26 17q-59 -30 -97 -71.5t-38 -102.5q0 -71 34.5 -103.5
t91.5 -32.5q69 0 105 40.5t36 102.5z" />
    <glyph glyph-name="nine" unicode="9" 
d="M178 -10q-31 0 -56.5 6.5t-44 18.5t-28.5 28.5t-10 35.5q0 18 9.5 31t31.5 13q38 0 38 -28q0 -11 -2.5 -19.5t-2.5 -19.5q0 -19 16 -34.5t52 -15.5q43 0 77 26.5t59.5 71.5t42.5 104.5t26 125.5h-2q-5 -11 -17 -23.5t-29.5 -23.5t-41.5 -18.5t-53 -7.5q-70 0 -108.5 44.5
t-38.5 116.5q0 54 15.5 95.5t42.5 70t64 43.5t80 15q85 0 126 -54t41 -175q0 -39 -7 -86t-21.5 -94.5t-37.5 -92t-55 -79t-73.5 -55t-92.5 -20.5zM390 365q1 12 3 27q2 13 3 31.5t1 41.5q0 35 -4 65.5t-15.5 53t-30.5 35t-49 12.5q-35 0 -60 -18t-41 -47t-23 -64.5t-7 -71.5
q0 -69 27.5 -105t80.5 -36q43 0 72.5 24t42.5 52z" />
    <glyph glyph-name="colon" unicode=":" horiz-adv-x="239" 
d="M63 37q0 21 13.5 34.5t34.5 13.5q22 0 35.5 -13.5t13.5 -34.5q0 -22 -13 -35.5t-36 -13.5t-35.5 13.5t-12.5 35.5zM130 369q0 21 13.5 34.5t34.5 13.5q22 0 35.5 -13.5t13.5 -34.5q0 -22 -13 -35.5t-36 -13.5t-35.5 13.5t-12.5 35.5z" />
    <glyph glyph-name="semicolon" unicode=";" horiz-adv-x="239" 
d="M130 369q0 21 13.5 34.5t34.5 13.5q22 0 35.5 -13.5t13.5 -34.5q0 -22 -13 -35.5t-36 -13.5t-35.5 13.5t-12.5 35.5zM168 18q0 -24 -10 -48.5t-27 -45.5t-38.5 -38t-44.5 -27l-4 7q16 10 32.5 24.5t29.5 32t21 35.5t8 35v4q-2 -2 -9 -4.5t-19 -2.5q-20 0 -33.5 12
t-13.5 35q0 22 14 35t36 13q29 0 43.5 -19.5t14.5 -47.5z" />
    <glyph glyph-name="less" unicode="&#x3c;" horiz-adv-x="585" 
d="M51 272l445 192l1 -42l-407 -174q102 -42 205.5 -87t206.5 -88l1 -43l-452 192v50z" />
    <glyph glyph-name="equal" unicode="=" horiz-adv-x="558" 
d="M66 355h458v-39h-458v39zM66 194h458v-39h-458v39z" />
    <glyph glyph-name="greater" unicode="&#x3e;" horiz-adv-x="585" 
d="M523 222l-452 -192l1 43q103 43 206.5 88t205.5 87l-407 174l1 42l445 -192v-50z" />
    <glyph glyph-name="question" unicode="?" horiz-adv-x="428" 
d="M220 325q20 19 39 36t39 35q15 15 29.5 30t25 32t17 37.5t6.5 44.5q0 45 -24 67.5t-69 22.5q-42 0 -67 -17t-26 -48q0 -8 0.5 -14t0.5 -11q0 -15 -9.5 -24t-29.5 -9q-35 0 -35 34q0 21 13 39.5t36.5 33t54.5 23t67 8.5q69 0 109.5 -27t40.5 -86q0 -48 -22.5 -84
t-57.5 -70q-14 -13 -30.5 -28t-33.5 -30l-34 -30t-30 -27q-17 -16 -27.5 -29t-16.5 -24t-9.5 -22t-5.5 -24l-1 -6h-7q-2 8 -4 20t-2 23q0 32 17 64t46 60zM102 37q0 21 13.5 34.5t34.5 13.5q22 0 35.5 -13.5t13.5 -34.5q0 -22 -13 -35.5t-36 -13.5t-35.5 13.5t-12.5 35.5z
" />
    <glyph glyph-name="at" unicode="@" horiz-adv-x="720" 
d="M457 235q-7 -15 -20 -34t-31 -36.5t-41 -29.5t-50 -12q-38 0 -59 24.5t-21 72.5q0 37 14 82t39.5 84.5t61 66t79.5 26.5q27 0 45 -11t26 -29l10 32h47q0 -2 -0.5 -3t-0.5 -3q-6 -26 -15.5 -73t-23.5 -110q-6 -26 -9 -42.5t-5 -27t-2.5 -17t-0.5 -13.5q0 -40 36 -40
q30 0 55.5 19t44.5 50.5t29.5 72.5t10.5 86q0 54 -16.5 98.5t-49.5 76t-82 48.5t-115 17q-69 0 -123 -26t-91.5 -71t-57.5 -105.5t-20 -128.5q0 -63 19.5 -115t55.5 -89t87.5 -57.5t115.5 -20.5q74 0 119.5 15.5t73.5 32.5l6 -13q-11 -7 -30 -17t-46 -19t-60.5 -15t-72.5 -6
q-83 0 -143.5 24.5t-100.5 66t-59.5 96t-19.5 114.5q0 71 25 135t71 112.5t109.5 77t140.5 28.5q65 0 118 -17.5t90.5 -50.5t57.5 -80.5t20 -107.5q0 -47 -11.5 -91.5t-34 -79.5t-56.5 -56.5t-80 -21.5q-35 0 -49.5 12.5t-14.5 40.5q0 6 1.5 17.5t6.5 40.5h-3zM494 411
q0 17 -12.5 34.5t-39.5 17.5q-33 0 -61 -24t-48 -60.5t-31 -79t-11 -78.5q0 -70 50 -70q28 0 53.5 23t46 60.5t34.5 83.5t19 93z" />
    <glyph glyph-name="A" unicode="A" horiz-adv-x="605" 
d="M-42 8q21 3 34.5 8t24 14.5t19.5 23.5t21 34l218 389q29 49 52.5 93t50.5 92q5 0 10 1q10 2 20 5q4 -29 14 -85t28 -157l55 -319q5 -27 9 -44t11 -28t19.5 -17t34.5 -10l-2 -8q-20 0 -50 0.5t-53 0.5h-28t-32.5 -0.5t-31.5 -0.5h-25l2 8q40 5 59.5 13t19.5 29q0 6 -3 27
l-31 187h-222l-81 -155q-11 -19 -22 -39t-11 -31t10 -16.5t24 -8.5q5 -2 10.5 -2.5t10.5 -1.5t11 -2l-1 -8q-19 0 -46.5 0.5t-47.5 0.5q-23 0 -44 -0.5t-38 -0.5zM352 567q-12 -23 -31 -57t-36 -65l-90 -157h205l-27 155q-4 20 -7.5 42t-6.5 40z" />
    <glyph glyph-name="B" unicode="B" horiz-adv-x="586" 
d="M255 -1q-24 0 -41 0.5t-31.5 0.5t-29.5 0.5t-36 0.5q-30 0 -64 -0.5t-60 -0.5l2 9q20 2 35.5 5.5t27.5 12.5t20 25t14 44l90 465q4 20 4 35q0 32 -19.5 41t-51.5 12l1 9q9 0 24 -0.5t32 -1t35 -1t34 -0.5q31 0 55 0.5t54 0.5q42 0 78.5 -6t63.5 -21t43 -41t16 -66
q0 -48 -18 -80.5t-45.5 -53t-60 -30.5t-60.5 -13l-1 -3q27 -3 55.5 -11t51.5 -24t37.5 -42t14.5 -66q0 -62 -24 -101t-62.5 -61t-86.5 -30t-97 -8zM165 96q-2 -9 -3.5 -21t-1.5 -18q0 -10 2.5 -17.5t11.5 -12t26 -6.5t46 -2q106 0 155 46.5t49 129.5q0 30 -7 51.5
t-19.5 36.5t-29.5 24t-37 14q-21 5 -47.5 6.5t-63.5 1.5h-38zM214 350h41q28 0 49 1.5t37.5 4.5t29.5 7.5t25 10.5q36 18 57 53t21 92q0 67 -40 91.5t-110 24.5q-14 0 -23.5 -0.5t-17.5 -0.5q-9 -1 -15 -1z" />
    <glyph glyph-name="C" unicode="C" horiz-adv-x="567" 
d="M334 19q28 0 51.5 7.5t43 19t34.5 26t26 28.5l11 -8q-7 -9 -21 -26.5t-37.5 -34.5t-58 -29.5t-81.5 -12.5q-51 0 -93.5 15.5t-73.5 48t-48.5 82.5t-17.5 119q0 49 9.5 99t28.5 96.5t47.5 87t66.5 70.5t85.5 47.5t105.5 17.5q59 0 94.5 -11.5t62.5 -22.5q3 0 7 2q5 0 9 -4
l-27 -173h-13q1 8 1 18.5v18.5q0 31 -7 58.5t-22.5 48.5t-41.5 33t-64 12q-43 0 -79 -18t-64.5 -48t-50.5 -69.5t-36.5 -82t-22 -85t-7.5 -79.5q0 -121 50.5 -186t132.5 -65z" />
    <glyph glyph-name="D" unicode="D" horiz-adv-x="664" 
d="M104 1q-30 0 -56 -0.5t-52 -0.5l1 9q20 2 35.5 5.5t27.5 12.5t20 25t14 44l91 465q2 12 3 20t1 15q0 32 -19.5 41t-51.5 12l1 9q19 0 48.5 -1.5t61.5 -1.5q29 0 48.5 0.5t38.5 0.5q52 0 103 -7t94 -27q53 -25 86 -75.5t33 -136.5q0 -85 -24.5 -162t-77.5 -134
q-50 -54 -125.5 -84.5t-180.5 -30.5q-35 0 -62 1t-58 1zM241 18q84 0 143 35.5t96.5 93.5t55 132t17.5 151q0 62 -18.5 102t-49.5 63t-72 32t-87 9q-14 0 -24.5 -0.5t-17.5 -1.5q-8 -1 -13 -2l-102 -529q-3 -15 -5 -28t-2 -21q0 -21 18 -28.5t61 -7.5z" />
    <glyph glyph-name="E" unicode="E" horiz-adv-x="554" 
d="M117 1q-30 0 -64 -0.5t-60 -0.5l1 9q20 2 35.5 5.5t27.5 12.5t20 25t14 44l91 465q4 20 4 35q0 32 -19.5 41t-51.5 12l1 9q9 0 24 -0.5t32 -0.5t35.5 -0.5t34.5 -0.5h201q40 0 68.5 1.5t49.5 3.5l1 -1l-15 -157h-11q0 51 -10.5 78t-34.5 40q-20 11 -47.5 14t-71.5 3h-104
l-56 -289h23.5t33 0.5t34 2t26.5 3.5q15 4 26 11t20 18.5t16.5 29t15.5 42.5h12q-16 -58 -26.5 -114.5t-19.5 -117.5h-12q1 8 1 15v14q0 34 -8 50t-31 22q-9 2 -25 3.5t-33.5 2t-32.5 1t-23 0.5l-44 -236q-2 -14 -3.5 -24t-1.5 -17q0 -11 4 -18.5t14.5 -12t28.5 -6t46 -1.5
h12q53 0 87.5 7.5t58.5 24.5t41.5 45t36.5 69h10l-36 -165q-38 3 -115 3h-231z" />
    <glyph glyph-name="F" unicode="F" horiz-adv-x="511" 
d="M167 99q-4 -20 -4 -36q0 -31 22.5 -40t70.5 -11l-2 -12q-26 0 -60 0.5t-80 0.5h-33t-36 -0.5t-35 -0.5h-30l2 12q20 2 35.5 5.5t27.5 12.5t20 25t14 44l89 459q4 20 4 35q0 32 -19.5 41t-51.5 12l2 12q9 0 24 -0.5t32 -0.5t35.5 -0.5t34.5 -0.5h203q40 0 68.5 1.5
t49.5 3.5l1 -1l-16 -162h-13q0 51 -10.5 78t-34.5 40q-20 11 -47.5 14t-71.5 3h-87l-55 -282h23t32 0.5t33.5 2t26.5 3.5q15 4 26 11t20 18.5t16.5 29t15.5 42.5h16q-16 -58 -26.5 -116.5t-19.5 -119.5h-16q1 8 1 15v14q0 34 -8 50t-31 22q-9 2 -25 3.5t-33.5 2t-32.5 1
t-23 0.5z" />
    <glyph glyph-name="G" unicode="G" horiz-adv-x="631" 
d="M471 118q8 42 12 63.5t4 35.5q0 32 -21 41t-53 12l2 9q19 0 49 -1t62 -1q36 0 67 1t50 1l-2 -9q-15 -2 -29 -5.5t-25.5 -12.5t-20 -25t-14.5 -44l-8 -39q-9 -42 -13 -62.5t-7 -41.5l-2 -2q-38 -19 -87.5 -34t-113.5 -15q-123 0 -187.5 67t-64.5 201q0 75 21.5 149
t64.5 133t107.5 96t150.5 37q60 0 102 -11.5t69 -22.5q3 0 7 2q5 0 9 -4l-27 -173h-13q1 8 1 15.5v15.5q0 31 -9 59.5t-27.5 50.5t-46.5 35t-66 13q-43 0 -79.5 -17.5t-65.5 -47.5t-50.5 -69t-36 -81t-22 -85.5t-7.5 -81.5q0 -125 44.5 -193t131.5 -68q66 0 100 30.5
t44 78.5z" />
    <glyph glyph-name="H" unicode="H" horiz-adv-x="677" 
d="M625 656q28 0 56 0.5t59 1.5l-2 -8q-20 -2 -35.5 -5.5t-27.5 -13t-20.5 -26.5t-14.5 -45q-22 -112 -45.5 -230.5t-44.5 -231.5q-2 -11 -3 -20.5t-1 -16.5q0 -16 5 -25.5t14.5 -15t22.5 -8.5t30 -4l-2 -8h-39t-29.5 0.5t-25 0.5h-24.5h-17t-22 -0.5t-32.5 -0.5h-48.5l2 8
q20 2 36 5.5t28 13t20.5 26t13.5 45.5l44 232h-313l-44 -232q-2 -11 -3 -20.5t-1 -16.5q0 -16 5 -25.5t14.5 -15t22.5 -8.5t29 -4l-2 -8h-39t-29.5 0.5t-25 0.5h-24.5q-17 0 -48 -0.5t-71 -0.5l2 8q19 2 34.5 5.5t27.5 13t20.5 26t14.5 45.5q22 113 45.5 230.5t44.5 230.5
q2 11 3 20t1 16q0 33 -19.5 42.5t-51.5 12.5l2 8q23 -1 49 -1.5t69 -0.5q29 0 58.5 0.5t61.5 1.5l-2 -8q-20 -2 -36 -5.5t-28 -13t-20.5 -26.5t-14.5 -45l-39 -205h313q4 22 9.5 48.5t10.5 53.5t10 53t9 49q2 12 3 20.5t1 15.5q0 33 -19.5 42.5t-51.5 12.5q1 1 1 3q0 4 1 5
q24 -2 51 -2h72z" />
    <glyph glyph-name="I" unicode="I" horiz-adv-x="292" 
d="M165 98q-2 -11 -3 -20.5t-1 -16.5q0 -16 5 -25.5t14.5 -15t22.5 -8.5t29 -4l-2 -8h-39t-29.5 0.5t-25 0.5h-24.5q-17 0 -48 -0.5t-71 -0.5l2 8q19 2 34.5 5.5t27.5 13t20.5 26t14.5 45.5q22 113 45.5 230.5t44.5 230.5q2 11 3 20t1 16q0 33 -19.5 42.5t-51.5 12.5l2 8
q23 -1 49 -1.5t69 -0.5q29 0 58.5 0.5t61.5 1.5l-2 -8q-20 -2 -36 -5.5t-28 -13t-20.5 -26.5t-14.5 -45z" />
    <glyph glyph-name="J" unicode="J" horiz-adv-x="371" 
d="M278 232q-9 -47 -22.5 -93t-36 -82t-55.5 -58t-82 -22q-56 0 -77.5 21t-21.5 48q0 17 10 27.5t30 10.5q38 0 38 -31q0 -7 -0.5 -13t-0.5 -14q0 -13 5 -25.5t28 -12.5q24 0 40.5 17t28.5 46.5t20.5 69t17.5 84.5l70 356q2 12 3 20t1 16q0 31 -22 40t-63 12l1 9
q9 0 25 -0.5t34 -1t37 -0.5h35q36 0 66 0.5t49 1.5l-1 -9q-20 -2 -35 -5.5t-26.5 -12.5t-19.5 -25t-13 -44z" />
    <glyph glyph-name="K" unicode="K" horiz-adv-x="572" 
d="M667 649q-37 -6 -68 -21t-60 -41l-248 -218l160 -266q14 -23 24.5 -39.5t21.5 -28t25 -17.5t34 -9l-2 -9h-12q-7 0 -20 0.5t-33 0.5q-11 0 -22.5 -0.5t-20.5 -0.5h-21l-193 337l1 8l246 223q20 19 27.5 29t7.5 21q0 17 -18.5 23t-39.5 8l2 9q23 -1 51.5 -1.5t57.5 -0.5
q31 0 53.5 0.5t48.5 1.5zM165 98q-2 -11 -3 -20.5t-1 -16.5q0 -16 5 -25.5t14.5 -15t22.5 -8.5t29 -4l-2 -8h-39t-29.5 0.5t-25 0.5h-24.5q-17 0 -48 -0.5t-71 -0.5l2 8q19 2 34.5 5.5t27.5 13t20.5 26t14.5 45.5q22 113 45.5 230.5t44.5 230.5q2 11 3 20t1 16
q0 33 -19.5 42.5t-51.5 12.5l2 8q23 -1 49 -1.5t69 -0.5q29 0 58.5 0.5t61.5 1.5l-2 -8q-20 -2 -36 -5.5t-28 -13t-20.5 -26.5t-14.5 -45z" />
    <glyph glyph-name="L" unicode="L" horiz-adv-x="511" 
d="M164 96q-2 -14 -3.5 -24t-1.5 -17q0 -11 4 -18.5t14.5 -12t28.5 -6t46 -1.5h4q53 0 88 8t59.5 26t41.5 47t35 71h9l-37 -171q-38 3 -115 3h-220q-30 0 -64 -0.5t-60 -0.5v9q20 2 35.5 5.5t27.5 12.5t20 25t14 44l92 465q2 12 3 20t1 16q0 31 -19.5 40t-51.5 12l1 9
q9 0 24 -0.5t32 -0.5t35.5 -0.5t34.5 -0.5q36 0 68.5 1t51.5 1l-1 -9q-24 -2 -41.5 -5.5t-30.5 -12.5t-21.5 -25t-13.5 -44z" />
    <glyph glyph-name="M" unicode="M" horiz-adv-x="758" 
d="M119 96q-2 -11 -3 -21t-1 -17q0 -29 19.5 -37.5t51.5 -11.5l-1 -9h-20.5t-16.5 0.5t-21.5 0.5h-35.5q-30 0 -51 -0.5t-47 -0.5l1 9q20 2 35.5 5.5t27.5 12.5t20 25t14 44l91 465q2 12 3 20t1 16q0 31 -19.5 40t-51.5 12l1 9q9 0 16 -0.5t15 -0.5t18.5 -0.5t26.5 -0.5
h23.5h15t13.5 0.5t19 0.5l72 -405q2 -14 6.5 -35.5t8.5 -41.5q4 -24 9 -48h2q13 22 25 44q11 19 22 39.5t19 35.5l237 411q10 0 14.5 -0.5t8 -0.5h8.5h16q32 0 62.5 1t47.5 1l-1 -9q-20 -2 -36 -5.5t-28 -12.5t-20 -25t-14 -44l-91 -466q-4 -20 -4 -36q0 -31 19.5 -39.5
t51.5 -11.5l-1 -9h-23.5t-23 0.5t-28 0.5h-38.5q-30 0 -64 -0.5t-60 -0.5l1 9q20 2 35.5 5.5t27.5 12.5t20 25t14 44l79 403q2 9 5.5 25t6.5 32q4 18 8 39h-4q-6 -11 -14 -26q-7 -13 -16 -30.5t-21 -39.5l-206 -359q-15 -28 -28 -52.5t-24 -44.5q-12 -23 -23 -43h-9l-80 446
q-4 20 -8 42t-7 41l-7 42h-4q-2 -20 -5 -39q-2 -17 -5.5 -35t-5.5 -31z" />
    <glyph glyph-name="N" unicode="N" horiz-adv-x="656" 
d="M602 558q2 12 3 20t1 16q0 31 -19.5 40t-53.5 12l2 12q19 -1 40.5 -1.5t53.5 -0.5q36 0 59 0.5t42 1.5l-2 -12q-20 -2 -36 -5.5t-28 -12.5t-20.5 -25t-13.5 -44l-110 -569h-12l-254 491l-26.5 53t-17.5 36h-2q-2 -16 -6.5 -38.5l-12.5 -62.5l-71 -370q-2 -11 -3 -21
t-1 -17q0 -29 21 -37.5t60 -11.5l-2 -12h-22t-19.5 0.5t-25 0.5h-37.5q-30 0 -51 -0.5t-47 -0.5l2 12q20 2 35.5 5.5t27.5 12.5t20 25t14 44l89 459q2 12 3 20t1 16q0 31 -19.5 40t-51.5 12l2 12q19 0 40.5 -1t47.5 -1h16.5t9 0.5t6 1t8.5 0.5l275 -529h2q1 7 4 23t6.5 35.5
t7.5 40.5t8 40z" />
    <glyph glyph-name="O" unicode="O" horiz-adv-x="678" 
d="M653 411q0 -32 -6.5 -75.5t-21.5 -90.5t-40.5 -93t-64.5 -82t-92.5 -58.5t-123.5 -22.5q-62 0 -106.5 17t-73 50t-42 81t-13.5 110q0 38 7.5 84.5t24.5 94t44 92t65.5 78.5t89.5 55t117 21q115 0 175.5 -66.5t60.5 -194.5zM575 436q0 42 -8.5 81t-28 69t-50 48t-73.5 18
q-50 0 -89 -22.5t-69 -58.5t-51 -82t-34 -93t-19 -91.5t-6 -77.5q0 -41 7.5 -80.5t26 -70.5t49 -50t76.5 -19q53 0 93.5 23.5t70 61.5t50 85.5t32.5 95t17.5 90.5t5.5 73z" />
    <glyph glyph-name="P" unicode="P" horiz-adv-x="519" 
d="M121 1q-33 0 -67.5 -0.5t-60.5 -0.5l1 9q20 2 35.5 5.5t27.5 12.5t20 25t14 44l91 464q4 23 4 36q0 31 -19.5 40t-51.5 12l1 9q19 -2 44 -2h57q15 0 24.5 0.5t19.5 0.5t21.5 0.5t29.5 0.5q48 0 85.5 -5t66.5 -19q36 -17 56.5 -48.5t20.5 -82.5q0 -47 -16.5 -86
t-46.5 -66.5t-72.5 -43t-93.5 -15.5q-42 0 -66 7t-40 13l-26 -136q-2 -9 -4.5 -23t-5.5 -29.5t-5 -30t-2 -23.5q0 -14 3.5 -24t14 -17.5t28.5 -12t48 -6.5l-2 -11q-15 1 -32.5 1.5t-35.5 1t-35.5 0.5h-30.5zM210 328q25 -11 71 -11q39 0 72.5 13t58.5 37t39 59t14 80
q0 44 -13.5 70.5t-35.5 40t-48.5 17.5t-51.5 4q-11 0 -20 -0.5t-15 -1.5q-7 -1 -12 -1z" />
    <glyph glyph-name="Q" unicode="Q" horiz-adv-x="678" 
d="M653 411q0 -37 -6.5 -79.5t-21 -86t-37 -85t-54.5 -75.5t-74 -57.5t-94 -31.5v-1q41 -6 65 -27t44 -44q9 -11 19 -21.5t21 -18.5t25.5 -13.5t32.5 -5.5q20 0 32.5 3t22.5 6l2 -8q-14 -8 -39 -16.5t-63 -8.5q-34 0 -57.5 9.5t-40.5 24t-30.5 32.5t-27 34.5t-30 29.5
t-40.5 18h-4q-122 2 -175.5 69t-53.5 189q0 38 7.5 84.5t24.5 94t44 92t65.5 78.5t89.5 55t117 21q115 0 175.5 -66.5t60.5 -194.5zM575 436q0 42 -8.5 81t-28 69t-50 48t-73.5 18q-50 0 -89 -22.5t-69 -58.5t-51 -82t-34 -93t-19 -91.5t-6 -77.5q0 -41 7.5 -81t26 -71
t49 -50t76.5 -19q53 0 93.5 23.5t70 61.5t50 85.5t32.5 95.5t17.5 91t5.5 73z" />
    <glyph glyph-name="R" unicode="R" horiz-adv-x="577" 
d="M213 346h38q28 0 49 1.5t36.5 4.5t28.5 7.5t25 11.5q36 18 56.5 54t20.5 94q0 34 -10 56.5t-29.5 36t-47.5 19.5t-63 6q-14 0 -23 -0.5t-15 -0.5q-7 -1 -11 -1zM182 561q4 20 4 35q0 32 -19.5 41t-51.5 12l1 9q10 0 24.5 -0.5t31 -1t34.5 -1t34 -0.5h26t21 0.5t20.5 0.5
h25.5q47 0 76.5 -4t55.5 -14q36 -14 57.5 -41.5t21.5 -74.5q0 -41 -14 -73.5t-40 -55.5t-66 -39t-86 -19l-2 -3q29 -3 48 -16.5t32 -35t20 -49t12 -56.5q7 -44 14.5 -75.5t19 -51.5t29 -30.5t44.5 -12.5l-2 -8q-23 -3 -54 -3q-60 0 -84 27q-17 19 -25 52.5t-16 87.5l-6 40
t-7.5 38t-11.5 33.5t-18 27.5q-11 11 -26 18t-37 7h-60l-44 -229q-4 -20 -4 -36q0 -31 20.5 -39.5t59.5 -11.5l-1 -9h-25t-26 0.5t-31 0.5h-40q-30 0 -64 -0.5t-60 -0.5l1 9q20 2 35.5 5.5t27.5 12.5t20.5 25t13.5 44z" />
    <glyph glyph-name="S" unicode="S" horiz-adv-x="512" 
d="M453 479v4q0 38 -7 68.5t-22.5 52t-40.5 33t-62 11.5q-61 0 -98.5 -33.5t-37.5 -92.5q0 -28 7 -47.5t21 -36t35 -32t50 -34.5l36 -24q22 -15 44 -31t39 -36t28 -45.5t11 -58.5q0 -47 -18 -82t-49.5 -58.5t-76 -35.5t-96.5 -12q-42 0 -75.5 7.5t-57 16.5t-36 16.5
t-12.5 8.5l30 156h13q-1 -6 -1 -11v-16q0 -45 10 -75t28.5 -49t45 -27t59.5 -8q37 0 66.5 11t50.5 30.5t32 47t11 60.5q0 27 -8.5 47t-23.5 36.5t-34.5 31t-41.5 28.5l-36 23q-28 18 -51 36t-39.5 38.5t-25.5 45t-9 55.5q0 40 16.5 72t45.5 53.5t68 33t83 11.5q50 0 84 -9.5
t61 -19.5q1 -2 4 1q1 1 2 1l7 -4l-16 -158h-13z" />
    <glyph glyph-name="T" unicode="T" horiz-adv-x="563" 
d="M296 96q-4 -23 -4 -36q0 -31 21.5 -40t63.5 -11l-1 -9q-26 0 -53.5 0.5t-73.5 0.5h-33.5t-37.5 -0.5t-36.5 -0.5h-30.5l1 9q25 2 43.5 5.5t31.5 12.5t22 25t14 44l106 544h-14q-46 0 -82 -5.5t-64 -20.5t-49.5 -43t-37.5 -73h-11l52 162l1 1q20 -2 56.5 -3.5t77.5 -1.5
h238q41 0 69 1.5t49 3.5l1 -1l-15 -162h-11v12q0 42 -10 68t-31 39.5t-53.5 18t-77.5 4.5h-15z" />
    <glyph glyph-name="U" unicode="U" horiz-adv-x="634" 
d="M582 561q2 12 3 20t1 16q0 31 -19.5 40t-53.5 12l1 9q19 -1 43 -1.5t56 -0.5q36 0 60.5 0.5t43.5 1.5l-1 -9q-20 -2 -36 -5.5t-28 -12.5t-20.5 -25t-13.5 -44l-70 -366q-8 -39 -19 -76.5t-36 -66t-69 -46t-117 -17.5q-94 0 -144.5 39.5t-50.5 120.5q0 22 3 45.5t7 44.5
l61 321q2 12 3 20t1 16q0 31 -19.5 40t-51.5 12l2 9q19 0 49 -1t62 -1q36 0 72 1t55 1l-2 -9q-20 -2 -36 -5.5t-28 -12.5t-20 -25t-14 -44l-63 -325q-5 -27 -8 -50t-3 -43q0 -54 33 -89.5t105 -35.5q56 0 90.5 14.5t55 39.5t30 57.5t16.5 67.5z" />
    <glyph glyph-name="V" unicode="V" horiz-adv-x="598" 
d="M253 -5q-5 32 -14 84t-23 138l-55 338q-5 27 -8.5 44t-10.5 27.5t-19.5 15.5t-34.5 8l2 8q20 -1 47 -1h50h28.5h34t33 0.5t25.5 0.5l-2 -8q-40 -5 -59.5 -13t-19.5 -29q0 -6 3 -27l62 -375q3 -20 6.5 -40t5.5 -35q3 -18 5 -34q12 23 27.5 51.5t32.5 60.5l186 351
q11 20 18 33.5t7 24.5q0 10 -7.5 15.5t-17.5 8.5t-21.5 4.5t-18.5 2.5l1 9q19 -1 46.5 -1h47.5h44t38 1l-1 -9q-21 -3 -34.5 -8t-24 -14.5t-20 -23.5t-20.5 -34l-215 -403q-11 -20 -25 -45.5t-28 -50.5t-25.5 -45.5t-16.5 -29.5h-29z" />
    <glyph glyph-name="W" unicode="W" horiz-adv-x="896" 
d="M607 -5l-62 367q-11 60 -18.5 106.5t-11.5 75.5h-2q-8 -16 -16 -32.5t-17.5 -37t-22 -45t-28.5 -57.5l-182 -377h-31l-44 556q-2 27 -5.5 45t-11.5 29t-21.5 16.5t-35.5 8.5l2 8q10 0 24.5 -0.5t30 -1t31 -0.5h27.5h26.5t29 0.5t28 1t23.5 0.5l-2 -8q-40 -5 -59 -13.5
t-19 -28.5q0 -10 0.5 -19t1.5 -20l21 -273q5 -55 7.5 -97t4.5 -80h2q18 38 33.5 71t36.5 75l191 391h23l70 -390q5 -27 8.5 -47.5t6.5 -38t5.5 -34t5.5 -35.5h2q12 29 26.5 66.5t37.5 92.5l118 291q9 23 12 35t3 23q0 10 -6.5 15.5t-16.5 8.5t-22 4t-22 3l1 8q19 -1 46 -1
h47h50t44 1l-1 -8q-41 -5 -62 -23t-37 -57l-239 -575h-31z" />
    <glyph glyph-name="X" unicode="X" horiz-adv-x="598" 
d="M166 0q-16 0 -27.5 0.5t-23 0.5h-23h-27.5h-54t-40 -1l1 9q34 4 60 18t58 51l212 248l-103 245q-9 22 -18 36.5t-20.5 23.5t-27.5 13t-40 5l5 9q27 -1 55.5 -1.5t55.5 -0.5q36 0 65 0.5t64 1.5l-4 -9q-26 -1 -47.5 -8.5t-21.5 -31.5q0 -11 6.5 -28t11.5 -29l72 -168
l142 179q15 19 23.5 33.5t8.5 25.5q0 13 -12.5 19.5t-46.5 7.5l2 9q27 -1 51 -1.5t51 -0.5h54t50 2l-1 -9q-26 -1 -46 -8t-38 -19t-34.5 -29.5t-35.5 -40.5l-157 -194l106 -251q12 -29 22.5 -47.5t21 -29t23 -15t29.5 -6.5l-3 -9q-13 0 -24.5 0.5t-24.5 0.5h-28.5h-36.5
h-40.5h-27t-20.5 -0.5t-21 -0.5l4 9q26 1 46.5 9.5t20.5 31.5q0 11 -4.5 24t-10.5 27l-85 199l-173 -208q-13 -16 -22.5 -29.5t-9.5 -24.5q0 -28 57 -29z" />
    <glyph glyph-name="Y" unicode="Y" horiz-adv-x="568" 
d="M313 96q-2 -12 -3 -21t-1 -16q0 -29 20.5 -38.5t60.5 -11.5l-2 -9h-25t-26 0.5t-31 0.5h-40h-33t-36 -0.5t-35 -0.5h-30l2 9q24 2 41.5 5.5t30.5 12.5t21.5 25t13.5 44l40 207l-105 261q-9 24 -17.5 39.5t-19 25t-24.5 14t-35 6.5l4 9q32 -1 58 -1.5t58 -0.5h30.5h28
t28 0.5t31.5 1.5l-3 -9q-35 -1 -55 -9t-20 -30q0 -14 6.5 -31.5t12.5 -31.5l86 -211l171 236q17 23 21.5 32.5t4.5 17.5q0 13 -15 19t-48 8l2 9q15 0 25.5 -0.5t19.5 -1t19 -0.5h25q29 0 48 0.5t48 1.5l-2 -9q-21 -2 -37 -8t-29.5 -17t-27 -26.5t-29.5 -37.5l-187 -253z" />
    <glyph glyph-name="Z" unicode="Z" horiz-adv-x="537" 
d="M580 642l-483 -624h162q56 0 89 7.5t56 21.5q29 19 46.5 49.5t34.5 73.5h11q-11 -48 -19 -86q-4 -16 -7.5 -31.5t-6 -27.5t-4.5 -19.5l-2 -7.5q-9 1 -25 1.5t-35 0.5h-39.5h-39.5h-316l2 16l478 622h-139q-46 0 -73 -3.5t-47 -9.5q-24 -8 -40.5 -19.5t-28.5 -27.5
t-21 -35.5t-19 -43.5h-11l34 161l1 1q20 -2 57 -3.5t78 -1.5h171q46 0 78 0.5t60 1.5z" />
    <glyph glyph-name="bracketleft" unicode="[" horiz-adv-x="262" 
d="M10 -226l179 920h153l-3 -15h-93l-173 -890h93l-3 -15h-153z" />
    <glyph glyph-name="backslash" unicode="\" horiz-adv-x="368" 
d="M99 734h32l197 -886h-32z" />
    <glyph glyph-name="bracketright" unicode="]" horiz-adv-x="257" 
d="M272 694l-179 -920h-153l3 15h93l173 890h-93l3 15h153z" />
    <glyph glyph-name="asciicircum" unicode="^" horiz-adv-x="343" 
d="M2 251h-42l184 448h54l185 -448h-42l-167 412h-6z" />
    <glyph glyph-name="underscore" unicode="_" horiz-adv-x="507" 
d="M-57 -166l6 30h497l-7 -30h-496z" />
    <glyph glyph-name="grave" unicode="`" horiz-adv-x="356" 
d="M374 514l-4 -7l-173 90q-9 5 -16 12t-7 20q0 14 9.5 20.5t19.5 6.5q11 0 17 -5l12 -10z" />
    <glyph glyph-name="a" unicode="a" horiz-adv-x="500" 
d="M440 426q0 -2 -1 -4t-1 -4q-8 -32 -20.5 -90t-28.5 -139l-4 -20q-6 -30 -12 -61t-6 -46q0 -11 3 -17.5t12 -6.5q16 0 38 17.5t40 36.5l7 -7q-11 -14 -25 -30.5t-30.5 -30.5t-35.5 -23.5t-38 -9.5q-35 0 -35 41q0 11 2 26t5 31l8 41l-4 1q-9 -18 -25 -42.5t-38.5 -46
t-51 -36.5t-62.5 -15q-47 0 -73.5 30.5t-26.5 90.5q0 31 8 67t22.5 71.5t35.5 69t48 59t59 41t69 15.5q35 0 56.5 -13.5t32.5 -36.5l13 41h59zM361 351q0 10 -4 21.5t-12 21t-20 15.5t-29 6q-42 0 -77 -30t-59.5 -75.5t-38.5 -98.5t-14 -98q0 -42 15.5 -65t47.5 -23
q34 0 66.5 29t58 75.5t43 104.5t23.5 117z" />
    <glyph glyph-name="b" unicode="b" horiz-adv-x="474" 
d="M166 -11q-58 0 -84.5 21.5t-26.5 63.5q0 17 4.5 43.5t9.5 49.5l87 428q2 8 3 15t1 14q0 20 -17.5 32.5t-59.5 17.5l2 9q48 1 76 2t43.5 2t22 1h10.5q-1 -4 -2 -9t-2 -10.5t-3 -11.5q-5 -23 -11 -51.5t-12.5 -60t-13.5 -64.5t-13 -64l-26 -122l4 -1q9 18 24.5 42t38 45.5
t51 36.5t61.5 15q48 0 74.5 -31t26.5 -88q0 -35 -8.5 -72t-24 -72.5t-38 -67.5t-50.5 -56q-31 -26 -67.5 -41.5t-79.5 -15.5zM163 269q-10 -21 -19.5 -47.5t-17 -53.5t-12 -51.5t-4.5 -41.5q0 -31 14 -49.5t48 -18.5q43 0 78.5 30.5t61 76t39 99t13.5 98.5q0 42 -16 65
t-48 23q-41 0 -75.5 -37t-61.5 -93z" />
    <glyph glyph-name="c" unicode="c" horiz-adv-x="395" 
d="M278 421q-42 0 -73.5 -28t-53 -68.5t-32.5 -86t-11 -80.5q0 -64 25 -99t76 -35q24 0 44 8.5t35 20t25 23t15 18.5l9 -7q-12 -18 -27.5 -35.5t-35 -31t-43.5 -21.5t-53 -8q-64 0 -100.5 38t-36.5 122q0 56 18 107.5t50.5 90.5t77 62.5t97.5 23.5q57 0 82.5 -22t25.5 -53
q0 -44 -40 -44q-35 0 -35 26q0 8 2.5 20.5t2.5 22.5q0 13 -8 24.5t-36 11.5z" />
    <glyph glyph-name="d" unicode="d" horiz-adv-x="506" 
d="M413 600q3 15 3 23q0 28 -23 37.5t-55 13.5l2 9q49 2 77.5 3t44.5 1.5t22 0.5h10q-7 -30 -14 -63q-6 -29 -14 -64t-16 -73q-9 -43 -16.5 -80t-15 -74.5t-16 -77t-17.5 -87.5q-6 -30 -12 -61t-6 -46q0 -11 3 -17.5t12 -6.5q16 0 38 17.5t40 36.5l7 -7q-11 -14 -25 -30.5
t-30.5 -30.5t-35.5 -23.5t-38 -9.5q-35 0 -35 41q0 11 2 26t5 31l8 41l-4 1q-9 -18 -25 -42.5t-38.5 -46t-51 -36.5t-62.5 -15q-47 0 -73.5 30.5t-26.5 90.5q0 31 8 67t22.5 71.5t35.5 69t48 59t59 41t69 15.5q36 0 57 -13.5t32 -36.5l14 62zM361 351q0 10 -4 21.5t-12.5 21
t-20.5 15.5t-28 6q-42 0 -77 -30t-59.5 -75.5t-38.5 -98.5t-14 -98q0 -42 15.5 -65t47.5 -23q34 0 66.5 29t58 75.5t43 104.5t23.5 117z" />
    <glyph glyph-name="e" unicode="e" horiz-adv-x="401" 
d="M395 352q0 -39 -20 -61t-51.5 -33.5t-71 -14.5t-78.5 -3h-56q-2 -8 -6 -33t-4 -55q0 -55 24.5 -91.5t77.5 -36.5q23 0 43 8.5t35 20t25 23t15 18.5l9 -7q-11 -18 -26 -35t-35 -30.5t-44.5 -22t-54.5 -8.5q-70 0 -103 42t-33 118q0 54 18 105.5t50 91t76.5 63.5t97.5 24
q54 0 83 -20.5t29 -62.5zM338 361q0 30 -16.5 45t-43.5 15q-24 0 -47.5 -12t-44.5 -33.5t-38 -52.5t-27 -69h31q42 0 76 5.5t58.5 18t38 33t13.5 50.5z" />
    <glyph glyph-name="f" unicode="f" horiz-adv-x="250" 
d="M47 407l4 19l82 -1q9 43 22 91t35 87.5t56 65.5t85 26q55 0 79.5 -19.5t24.5 -45.5q0 -36 -37 -36q-34 0 -34 28q0 5 0.5 11t0.5 11q0 14 -7.5 25t-33.5 11q-31 0 -52 -21t-35 -53t-23 -72t-16 -77l-6 -32q29 0 60.5 0.5t60.5 0.5l-5 -19h-119l-80 -403q-9 -48 -24 -90
t-36 -73.5t-50 -49.5t-67 -18q-51 0 -71.5 18.5t-20.5 42.5q0 35 37 35q34 0 34 -29q0 -4 -0.5 -12t-0.5 -12q0 -10 4.5 -21t25.5 -11q24 0 40.5 16.5t28.5 43t20.5 61t15.5 70.5l84 432h-82z" />
    <glyph glyph-name="g" unicode="g" horiz-adv-x="446" 
d="M239 433q68 0 106 -38q13 17 33 32t49 15q20 0 35 -10t15 -32q0 -19 -10 -26.5t-23 -7.5q-30 0 -30 26v5q0 7 -4 12t-14 5q-13 0 -25 -9.5t-19 -17.5q12 -17 20 -35.5t8 -44.5q0 -37 -13.5 -68t-38 -53t-59 -34.5t-75.5 -12.5q-18 0 -23 1l-8 2q-11 -4 -22 -10t-20 -13.5
t-14.5 -15.5t-5.5 -17q0 -20 16.5 -26t47.5 -13q36 -8 74.5 -15.5t74.5 -21.5q31 -11 49.5 -32.5t18.5 -55.5q0 -37 -18 -66t-49.5 -49.5t-75 -31t-94.5 -10.5q-37 0 -69 7t-56 21t-38 36t-14 51q0 26 11.5 47t30.5 37t43 27.5t49 19.5q-7 3 -16 6.5t-16.5 9t-12.5 14.5
t-5 22q0 30 27 51t66 32q-17 5 -33.5 13.5t-29.5 22.5t-21 33.5t-8 46.5q0 36 14.5 67t39.5 54.5t59 36.5t73 13zM155 -214q36 0 67 8.5t53 24t34.5 36.5t12.5 46q0 23 -11 38.5t-30.5 25.5t-45 16.5t-54.5 12.5q-23 3 -45 8q-12 3 -24 5q-16 -9 -31.5 -20.5t-28 -25.5
t-20 -31.5t-7.5 -38.5q0 -48 33.5 -76.5t96.5 -28.5zM189 156q34 0 59 15.5t40.5 39.5t23 54t7.5 59q0 18 -4 35t-13.5 29.5t-25 20.5t-38.5 8q-30 0 -53.5 -14t-40 -37t-25 -52t-8.5 -60q0 -40 17.5 -69t60.5 -29z" />
    <glyph glyph-name="h" unicode="h" horiz-adv-x="486" 
d="M199 494q-8 -40 -12.5 -63t-6.5 -35t-3 -16t-2 -7l-28 -122h5q12 29 31 61t44.5 59t56.5 44.5t66 17.5q34 0 48 -17t14 -47q0 -17 -3.5 -35t-7.5 -35l-33 -143q-6 -29 -12 -56t-6 -42q0 -11 3 -17.5t13 -6.5q6 0 16.5 5t22 13t23 18.5t21.5 21.5l7 -7q-11 -14 -26 -30.5
t-32.5 -30.5t-37 -23.5t-38.5 -9.5q-38 0 -38 41q0 11 2.5 26.5t6.5 32.5l52 236q4 19 4 31q0 16 -8 26t-28 10q-36 0 -67.5 -29.5t-57 -73.5t-43 -95t-24.5 -94q-5 -26 -10 -51t-10 -51h-59q5 21 10 47q5 22 10.5 50t11.5 58l87 440q2 8 3 15t1 14q0 20 -17.5 32.5
t-59.5 17.5l2 9q48 1 76.5 2t44.5 2t22.5 1h10.5q-1 0 -5 -16.5t-10.5 -43.5t-14.5 -62t-15 -72z" />
    <glyph glyph-name="i" unicode="i" horiz-adv-x="252" 
d="M114 334q2 8 3 15t1 14q0 21 -18 33.5t-60 17.5l2 9q48 1 76 2t43.5 2t22 1h10.5l-8 -37q-7 -32 -15.5 -70.5t-19.5 -95.5l-13 -63q-7 -32 -13 -61.5t-6 -43.5q0 -23 16 -23q7 0 17.5 5t21.5 13t22.5 18.5t21.5 21.5l7 -7q-11 -14 -26 -30.5t-32.5 -30.5t-37.5 -23.5
t-40 -9.5q-19 0 -26.5 10t-7.5 27q0 12 2.5 29t5.5 32zM145 638q0 19 13 32t32 13t32 -13t13 -32t-13 -32t-32 -13t-32 13t-13 32z" />
    <glyph glyph-name="j" unicode="j" horiz-adv-x="241" 
d="M131 334q2 8 3 15t1 14q0 21 -18 33.5t-60 17.5l2 9q48 1 76 2t43.5 2t22 1h10.5q-7 -27 -12.5 -52t-10.5 -49t-9.5 -49t-10.5 -53l-43 -221q-9 -47 -23 -88.5t-35 -73.5t-49.5 -50.5t-66.5 -18.5q-50 0 -69 18t-19 42q0 17 9.5 26.5t28.5 9.5q33 0 33 -28q0 -6 -0.5 -13
t-0.5 -11q0 -13 4.5 -22.5t24.5 -9.5q23 0 38.5 16t26 42.5t18 61t14.5 70.5zM162 638q0 19 13 32t32 13t32 -13t13 -32t-13 -32t-32 -13t-32 13t-13 32z" />
    <glyph glyph-name="k" unicode="k" horiz-adv-x="441" 
d="M163 595q2 8 3 15t1 14q0 20 -17.5 32.5t-59.5 17.5l2 9q48 1 76 2t43.5 2t22 1h10.5l-7 -31q-5 -23 -11.5 -51.5t-13 -60t-13.5 -64.5t-13 -64l-83 -417h-60q5 22 10 48q5 22 10.5 49.5l11.5 57.5zM426 408q0 -24 -19 -45.5t-46.5 -40.5t-58.5 -35t-55 -28l-20 -10
q10 -27 21.5 -56.5t22.5 -57.5q7 -18 15.5 -36.5t18 -33.5t20 -24.5t22.5 -9.5q10 0 20 5t19 12t17 15.5t13 14.5l8 -6q-25 -38 -53.5 -59t-57.5 -21q-25 0 -41.5 17.5t-32.5 55.5q-11 25 -24.5 63t-25.5 72l-13 37q30 16 63 34.5t59 36.5q24 17 41 33.5t17 43.5v13
q0 19 8 29.5t28 10.5q17 0 25.5 -8t8.5 -22z" />
    <glyph glyph-name="l" unicode="l" horiz-adv-x="250" 
d="M167 593q2 8 3 15t1 14q0 21 -18 33.5t-60 17.5l2 9q48 1 76 2t43.5 2t22 1h10.5l-8 -37q-7 -32 -15.5 -70.5t-19.5 -95.5l-66 -322q-7 -32 -13 -61.5t-6 -43.5q0 -23 16 -23q7 0 17.5 5t21.5 13t22.5 18.5t21.5 21.5l7 -7q-11 -14 -26 -30.5t-32.5 -30.5t-37.5 -23.5
t-40 -9.5q-19 0 -26.5 10t-7.5 28q0 11 2.5 29.5t7.5 41.5z" />
    <glyph glyph-name="m" unicode="m" horiz-adv-x="749" 
d="M632 156q-7 -29 -12.5 -56t-5.5 -42q0 -11 3 -17.5t13 -6.5q6 0 16.5 5t22 13t23 18.5t21.5 21.5l7 -7q-11 -14 -26 -30.5t-32.5 -30.5t-37 -23.5t-38.5 -9.5q-38 0 -38 42q0 14 3 31.5t7 33.5l52 229q4 19 4 31q0 16 -8 26t-28 10q-36 0 -68.5 -29.5t-59 -73.5t-45 -95
t-25.5 -94q-5 -26 -10 -51t-10 -51h-59q1 3 4 17t8 35.5t10.5 48t11.5 54.5l35 172q2 10 3 18t1 13q0 16 -12 26t-32 10q-36 0 -67.5 -29.5t-56 -73.5t-42 -95t-25.5 -94q-5 -26 -10 -51t-10 -51h-58l31 155l36 188q1 5 1.5 9t0.5 8q0 15 -6 25t-16.5 15.5t-24 8.5t-29.5 5
l2 9q46 1 74 2t43 2t21.5 1h11.5l-41 -177h6q11 29 30 61t44 59t56 44.5t66 17.5q66 0 66 -65q0 -9 -2 -21.5t-4.5 -26t-5 -26.5t-4.5 -21l4 -1q38 71 87.5 116t107.5 45q33 0 46.5 -16.5t13.5 -48.5q0 -17 -3.5 -34.5t-7.5 -34.5zM299 0h2v-2z" />
    <glyph glyph-name="n" unicode="n" horiz-adv-x="502" 
d="M164 251h5q12 29 31 61t44.5 59t56.5 44.5t66 17.5q34 0 48 -17t14 -47q0 -17 -3.5 -35t-7.5 -35l-33 -143q-6 -29 -12 -56t-6 -42q0 -11 3 -17.5t13 -6.5q6 0 16.5 5t22 13t23 18.5t21.5 21.5l7 -7q-11 -14 -26 -30.5t-32.5 -30.5t-37 -23.5t-38.5 -9.5q-38 0 -38 42
q0 14 3 31.5t7 33.5l51 229q4 19 4 31q0 16 -8 26t-28 10q-36 0 -67.5 -29.5t-57 -73.5t-43 -95t-24.5 -94q-5 -26 -10 -51t-10 -51h-59q5 21 10 47q5 22 10.5 50t11.5 58l36 188q1 5 1.5 10t0.5 9q0 29 -22.5 38.5t-54.5 13.5l2 9q68 2 105 3t47 2z" />
    <glyph glyph-name="o" unicode="o" horiz-adv-x="461" 
d="M191 -9q-42 0 -69 12t-42.5 32.5t-22 48.5t-6.5 60q0 50 16.5 101.5t47 93.5t74 68.5t96.5 26.5q40 0 66.5 -12t42.5 -33t22 -49t6 -60q0 -48 -15.5 -99t-44.5 -93t-72.5 -69.5t-98.5 -27.5zM116 112q0 -56 19.5 -81t57.5 -25q28 0 51.5 16t41.5 42t31.5 58.5t22.5 66.5
t13 65.5t4 54.5q0 22 -3.5 42t-12 35t-23 23.5t-36.5 8.5q-27 0 -50 -15.5t-41 -41.5t-32.5 -58.5t-23.5 -66.5t-14 -66.5t-5 -57.5z" />
    <glyph glyph-name="p" unicode="p" horiz-adv-x="485" 
d="M5 -225q12 48 29 130.5t37 178.5l52 258q1 5 1.5 9.5t0.5 8.5q0 15 -6 24t-16.5 15t-24.5 9t-30 5l2 9q48 1 76 2t43.5 2t22 1h10.5l-31 -132l4 -1q9 18 24.5 42t38 45.5t51 36.5t62.5 15q46 0 68 -31t22 -88q0 -31 -7 -67t-20.5 -72t-33.5 -70t-46 -59.5t-57.5 -41
t-67.5 -15.5q-35 0 -57 14.5t-32 35.5l-20 -103q-8 -35 -15.5 -72.5t-17.5 -88.5h-62zM127 73q0 -10 4 -21.5t12 -21t20 -15.5t28 -6q39 0 72 30t57 75.5t37.5 98.5t13.5 98q0 42 -15 65t-42 23q-33 0 -64 -29t-56.5 -75.5t-43 -105t-23.5 -116.5z" />
    <glyph glyph-name="q" unicode="q" horiz-adv-x="479" 
d="M314 131q-9 -18 -25 -42.5t-38.5 -46t-51 -36.5t-62.5 -15q-47 0 -73.5 30.5t-26.5 90.5q0 31 8 67t22.5 71.5t35.5 69t48 59t59 41t69 15.5q35 0 56.5 -13.5t32.5 -36.5l13 41h59q0 -2 -1 -4t-1 -4q-8 -32 -20.5 -90t-28.5 -139l-38 -190q-6 -27 -11 -52.5t-10 -51.5
t-10.5 -55t-12.5 -65h-62q3 11 6 26t6 29l37 178q5 23 8.5 40t6 31t4.5 26t5 25zM361 351q0 10 -4 21.5t-12 21t-20 15.5t-29 6q-42 0 -77 -30t-59.5 -75.5t-38.5 -98.5t-14 -98q0 -42 15.5 -65t47.5 -23q34 0 66.5 29t58 75.5t43 104.5t23.5 117z" />
    <glyph glyph-name="r" unicode="r" horiz-adv-x="335" 
d="M60 0q1 3 4 17t7.5 35.5t10 48t10.5 54.5l34 177q2 8 3 16t1 13q0 29 -22 39t-54 14l2 9q46 1 73 2t42 2t21 1h11l-44 -188h8q10 31 24.5 65t33 62t41 46t48.5 18q20 0 32 -11t12 -29q0 -22 -12.5 -32.5t-27.5 -10.5q-10 0 -16.5 4.5t-12 10l-10 10t-10.5 4.5
q-17 0 -39.5 -34.5t-44.5 -91.5q-15 -38 -28.5 -84.5t-24.5 -95.5l-6 -28t-8 -43h-58z" />
    <glyph glyph-name="s" unicode="s" horiz-adv-x="351" 
d="M312 317h-11v6q0 19 -4 36.5t-13.5 30.5t-25.5 20.5t-39 7.5q-39 0 -63 -24t-24 -57q0 -28 15.5 -48.5t42.5 -37.5l19 -12q18 -11 34.5 -23t30 -26t21.5 -32t8 -41q0 -32 -13 -56t-36 -40t-54 -23.5t-67 -7.5q-43 0 -74 9.5t-43 17.5l20 98h12v-9q0 -45 19.5 -72.5
t69.5 -27.5q49 0 79 26t30 65q0 18 -6.5 31.5t-17.5 25t-24.5 20.5t-27.5 18l-21 14q-13 9 -25.5 19t-22.5 23t-16.5 30t-6.5 39q0 28 11.5 50t31 37t46.5 22.5t57 7.5q32 0 61 -8t44 -17z" />
    <glyph glyph-name="t" unicode="t" horiz-adv-x="266" 
d="M71 426l65 -1l11 45q17 4 34 19t26 42h11q-4 -17 -6.5 -29t-5 -23.5t-5.5 -24t-6 -29.5l106 1l-5 -19h-104l-50 -245q-7 -32 -13 -61.5t-6 -43.5q0 -23 16 -23q7 0 17.5 5t21.5 13t22.5 18.5t21.5 21.5l7 -7q-11 -14 -26 -30.5t-32.5 -30.5t-37.5 -23.5t-40 -9.5
q-19 0 -26.5 10t-7.5 28q0 11 2.5 29.5t7.5 41.5l63 307h-65z" />
    <glyph glyph-name="u" unicode="u" horiz-adv-x="494" 
d="M138 110q-2 -9 -3.5 -21.5t-1.5 -20.5q0 -16 7 -26.5t28 -10.5q31 0 59.5 28t52.5 70t41.5 91.5t26.5 93.5l23 112h60q-6 -24 -11 -50q-5 -23 -11 -50.5t-11 -56.5q-5 -26 -11 -54t-11 -53q-6 -31 -11.5 -59.5t-5.5 -44.5q0 -11 3 -17.5t11 -6.5q9 0 19.5 5.5t21.5 14
t22 18.5t20 20l7 -7q-11 -14 -25.5 -30.5t-32 -30.5t-35.5 -23.5t-36 -9.5q-36 0 -36 40q0 11 2.5 27.5t6 36t8 40t9.5 38.5h-6q-11 -29 -29.5 -61t-43 -59t-54 -44.5t-62.5 -17.5t-46 14.5t-13 46.5q0 17 3.5 35t7.5 36l45 220q1 5 1.5 9.5t0.5 9.5q0 29 -22.5 38.5
t-54.5 13.5l2 9q48 1 76 2t43.5 2t22 1h10.5q-7 -30 -13 -54.5t-10.5 -44.5t-8.5 -38t-7 -35z" />
    <glyph glyph-name="v" unicode="v" horiz-adv-x="442" 
d="M163 89q-2 -14 -2.5 -21.5t-0.5 -14.5q0 -11 3 -17t12 -6q10 0 27.5 12t38 32.5t41.5 47.5t38 57.5t28 62.5t11 62q0 18 -4.5 33.5t-9.5 27.5q-4 10 -6.5 18t-2.5 16q0 16 12.5 27.5t33.5 11.5q22 0 29.5 -15.5t7.5 -35.5q0 -37 -14 -81t-36.5 -88t-52.5 -85t-62 -72.5
t-64.5 -50.5t-59.5 -19q-22 0 -27 11.5t-5 27.5q0 18 3 42l31 258q2 11 3 22.5t1 18.5t-3.5 12t-13.5 5t-20 -6t-20 -15t-18.5 -19t-15.5 -18l-9 8q10 15 24.5 32.5t31.5 32.5t35.5 25t37.5 10q35 0 35 -37q0 -9 -0.5 -21.5t-2.5 -24.5z" />
    <glyph glyph-name="w" unicode="w" horiz-adv-x="663" 
d="M415 426q-3 -27 -5 -46t-4 -37t-4.5 -37.5t-5.5 -46.5l-20 -171q-3 -24 -3 -36q0 -23 14 -23q15 0 46 25.5t62 65.5t54.5 89.5t23.5 97.5q0 18 -5 32t-10 26q-4 10 -6.5 18t-2.5 16q0 16 12.5 27.5t32.5 11.5q22 0 30.5 -15.5t8.5 -35.5q0 -37 -14 -81t-37 -88t-52.5 -85
t-61 -72.5t-62.5 -50.5t-57 -19q-25 0 -32.5 13t-7.5 29q0 7 1 20.5t3 29.5t4.5 34t4.5 34l-4 1q-22 -35 -46 -64t-48.5 -51t-48 -34t-44.5 -12q-23 0 -28.5 11.5t-5.5 27.5q0 18 3 42l32 258q2 11 3 22.5t1 18.5t-3 12t-12 5q-11 0 -21.5 -6t-20 -15t-18.5 -19t-16 -18
l-9 8q11 16 25.5 33.5t31 32.5t35 24.5t37.5 9.5q35 0 35 -37q0 -9 -0.5 -21.5t-2.5 -24.5l-34 -267q-2 -14 -2.5 -21.5t-0.5 -14.5q0 -23 14 -23q10 0 29.5 14.5t41.5 38.5t44.5 55.5t39.5 64.5l28 224h58z" />
    <glyph glyph-name="x" unicode="x" horiz-adv-x="386" 
d="M180 176l-12 -20q-7 -11 -20.5 -30.5t-30.5 -46.5q-11 -17 -21.5 -32.5t-22.5 -28t-26 -20t-32 -7.5q-23 0 -34 11t-11 28q0 18 10.5 27.5t24.5 9.5q8 0 14.5 -2.5t11.5 -5.5q5 -2 9.5 -4.5t10.5 -2.5q11 0 25.5 12.5t31 32.5t34.5 46.5t37 54.5q-4 28 -8 54
q-3 22 -5.5 44t-4.5 33q-5 39 -12.5 54t-23.5 15q-9 0 -18.5 -5t-18.5 -12.5t-16.5 -16.5t-13.5 -16l-9 8q9 13 21.5 27.5t27.5 26.5t32 20t35 8q27 0 35.5 -23.5t14.5 -59.5q2 -11 4 -25.5t4 -27.5l4 -30l39 58q10 15 22.5 33.5t26.5 35t30.5 28t33.5 11.5q19 0 30 -10.5
t11 -27.5q0 -19 -11 -31t-27 -12q-8 0 -13 3l-10 6t-9 6t-11 3q-9 0 -22.5 -11.5t-28.5 -30t-30 -41.5t-27 -45q3 -28 7 -54q3 -23 6.5 -49t6.5 -48q5 -36 10.5 -51t19.5 -15q7 0 17.5 5t21 12.5t20 16t16.5 16.5l7 -8q-9 -12 -23 -26t-30 -26.5t-34.5 -20.5t-36.5 -8
q-14 0 -22 5.5t-12 16t-6 25t-4 31.5q-2 20 -4 39t-4 34q-2 18 -4 34h-3z" />
    <glyph glyph-name="y" unicode="y" horiz-adv-x="432" 
d="M179 344q11 -66 27.5 -145.5t32.5 -164.5q10 16 29.5 49t38.5 72.5t33 79.5t14 70q0 17 -6 30t-11 24q-5 10 -8.5 20t-3.5 18q-1 17 10.5 29t30.5 12q44 0 44 -52q1 -29 -10.5 -68t-31 -84t-45.5 -93.5t-56 -96.5q-34 -52 -71 -102.5t-75 -90t-75.5 -63.5t-71.5 -24
q-24 0 -38 10.5t-14 30.5q0 17 11.5 28.5t28.5 11.5q11 0 18.5 -5.5t13.5 -11.5q6 -5 12 -9.5t16 -4.5q15 0 36 13.5t44.5 35t46.5 49t41 56.5l-73 361q-6 29 -12.5 43.5t-22.5 14.5q-17 0 -35.5 -18t-36.5 -41l-10 7q7 13 19.5 31t28.5 34t33.5 27t35.5 11q23 0 37.5 -19.5
t24.5 -74.5z" />
    <glyph glyph-name="z" unicode="z" horiz-adv-x="395" 
d="M4 9l302 399h-65q-40 0 -64 -4t-41 -11q-24 -11 -40 -30.5t-30 -45.5h-11q8 26 21 57.5t24 55.5q18 -2 56.5 -3.5t85.5 -1.5h38q28 0 59 0.5t48 1.5v-9q-23 -27 -47 -58.5t-47 -62.5l-155 -206q-14 -19 -29 -39.5t-28 -36.5q16 1 38 1h59q41 0 65 6.5t40 17.5
q19 14 32.5 34.5t25.5 41.5h10q-8 -29 -18 -60.5t-20 -57.5q-22 2 -59 2h-84h-167z" />
    <glyph glyph-name="braceleft" unicode="{" horiz-adv-x="321" 
d="M79 261q62 -9 85 -38t23 -75q0 -20 -3.5 -44t-8.5 -52l-22 -116q-4 -22 -6.5 -40.5t-2.5 -33.5q0 -38 18.5 -57.5t66.5 -24.5l-2 -10q-40 3 -67 11t-43 23.5t-22.5 38.5t-6.5 56q0 32 9 76l25 136q3 17 5 31.5t2 26.5q0 38 -20.5 60t-72.5 31l2 9q37 4 60.5 10.5t38.5 20
t24 36t16 57.5l27 130q10 52 24.5 85.5t36.5 52.5t52.5 26t72.5 7h16l-2 -10q-33 0 -55 -7.5t-36.5 -23.5t-24 -42.5t-16.5 -63.5l-19 -92q-9 -45 -19 -78.5t-28.5 -57t-48 -37.5t-77.5 -19z" />
    <glyph glyph-name="bar" unicode="|" horiz-adv-x="317" 
d="M140 823h37v-997h-37v997z" />
    <glyph glyph-name="braceright" unicode="}" horiz-adv-x="283" 
d="M253 243q-63 8 -87 36.5t-24 75.5q0 20 3.5 44t8.5 52l14 78q4 22 6.5 40.5t2.5 33.5q0 38 -18.5 57.5t-66.5 24.5l2 9q40 -1 67 -9.5t43.5 -23.5t23 -36.5t6.5 -47.5q0 -19 -2.5 -40t-7.5 -44l-19 -103q-3 -17 -5 -31.5t-2 -26.5q0 -38 21 -58.5t73 -29.5l-2 -8
q-36 -5 -60 -11.5t-39 -20t-24 -35.5t-16 -57l-34 -167q-11 -52 -25 -86t-36 -53.5t-52.5 -27.5t-72.5 -8h-16l2 10q33 0 54.5 6.5t36 22t24 42t17.5 66.5l27 131q10 47 20.5 81.5t29 57.5t48.5 36t78 18z" />
    <glyph glyph-name="asciitilde" unicode="~" horiz-adv-x="640" 
d="M359 335q40 -15 65 -21t42 -6q38 0 68 25t42 73l9 -2q-14 -77 -42.5 -110t-85.5 -33q-28 0 -57.5 9t-55.5 20l-65 25q-40 15 -65 21t-42 6q-38 0 -67 -25t-41 -73l-9 2q13 77 41 110t85 33q26 0 54 -8.5t54 -18.5z" />
    <glyph glyph-name="exclamdown" unicode="&#xa1;" horiz-adv-x="249" 
d="M141 249q-7 -72 -16 -150t-17 -145t-14.5 -114t-7.5 -57q-9 -37 -40 -37q-18 0 -30 10t-12 29q0 11 3 24.5t5 23.5l108 416h21zM197 386q0 -21 -13.5 -34.5t-34.5 -13.5q-22 0 -35.5 13.5t-13.5 34.5q0 22 13 35.5t36 13.5t35.5 -13.5t12.5 -35.5z" />
    <glyph glyph-name="cent" unicode="&#xa2;" horiz-adv-x="395" 
d="M275 421l-71 -397h5q24 0 44 8.5t35 20t25 23t15 18.5l9 -7q-21 -33 -55 -61t-83 -33l-21 -117h-22l20 115q-63 1 -99 38.5t-36 121.5q0 52 15.5 100.5t44 86.5t68 63.5t86.5 31.5l21 113h22l-20 -112q2 0 3 0.5t3 0.5q57 0 82.5 -22t25.5 -53q0 -44 -40 -44
q-35 0 -35 26q0 8 2.5 20.5t2.5 22.5q0 13 -8 24.5t-36 11.5h-3zM108 158q0 -56 18.5 -89.5t56.5 -41.5l70 391q-36 -9 -63 -38.5t-45 -68t-27.5 -80t-9.5 -73.5z" />
    <glyph glyph-name="sterling" unicode="&#xa3;" 
d="M370 645q62 0 94.5 -21.5t32.5 -51.5q0 -17 -9.5 -27.5t-29.5 -10.5q-32 0 -32 28q0 7 1.5 14.5t1.5 14.5q0 20 -17.5 30t-44.5 10q-31 0 -53 -12t-38 -36.5t-27 -61t-19 -85.5q-4 -22 -8 -43.5t-7 -44.5l133 1l-4 -19h-132q-4 -26 -9.5 -60.5t-10.5 -61.5
q-8 -43 -18.5 -72t-23 -48.5t-28.5 -32t-36 -21.5l-1 -2q34 1 68 1h72q53 0 86.5 4.5t54.5 16.5t34 32t27 52h9l-37 -139q-29 1 -61.5 1h-61.5h-180h-55.5t-52.5 -1l2 11q41 2 65.5 13t37.5 40q10 24 18 55.5t14.5 67t12 72.5t10.5 73l-86 -1l4 19l85 -1q3 15 6 34t6 36
q9 52 25.5 94.5t41 71.5t59 45t81.5 16z" />
    <glyph glyph-name="currency" unicode="&#xa4;" horiz-adv-x="502" 
d="M35 329q0 41 13.5 77t36.5 64l-59 61l25 24l60 -59q29 24 64 37.5t76 13.5q80 -2 139 -50l60 59l25 -25l-59 -59q24 -28 38 -64t14 -78t-13.5 -77t-37.5 -64l59 -58l-25 -25l-60 57q-29 -24 -64.5 -37t-75.5 -13q-41 0 -77 13.5t-64 37.5l-60 -58l-26 26l59 59
q-23 28 -35.5 62.5t-12.5 75.5zM67 330q1 -40 15 -74t38.5 -58.5t58 -38.5t72.5 -14t72.5 14t58.5 39t39 59t14 73t-14.5 73t-39 59t-58.5 39.5t-73 14.5t-72.5 -14.5t-57.5 -39.5t-38 -59t-15 -73z" />
    <glyph glyph-name="yen" unicode="&#xa5;" 
d="M210 199l14 74h-148l4 21h148l2 9l-105 261q-9 24 -17.5 39.5t-19 25t-24.5 14t-35 6.5l4 9q32 -1 58 -1.5t58 -0.5h30.5h28t28 0.5t31.5 1.5l-3 -9q-35 -1 -55 -9t-20 -30q0 -14 6.5 -31.5t12.5 -31.5l86 -211l171 236q17 23 21.5 32.5t4.5 17.5q0 13 -15 19t-48 8l2 9
q15 0 25.5 -0.5t19.5 -1t19 -0.5h25q29 0 48 0.5t48 1.5l-2 -9q-21 -2 -37 -8t-29.5 -17t-27 -26.5t-29.5 -37.5l-187 -253l-3 -13h147l-4 -21h-147l-14 -74h146l-4 -21h-146l-16 -82q-2 -12 -3 -21t-1 -16q0 -29 20.5 -38.5t60.5 -11.5l-2 -9h-25t-26 0.5t-31 0.5h-40h-33
t-36 -0.5t-35 -0.5h-30l2 9q24 2 41.5 5.5t30.5 12.5t21.5 25t13.5 44l16 82h-149l4 21h149z" />
    <glyph glyph-name="brokenbar" unicode="&#xa6;" horiz-adv-x="251" 
d="M128 209h44v-344h-44v344zM128 730h44v-343h-44v343z" />
    <glyph glyph-name="section" unicode="&#xa7;" horiz-adv-x="441" 
d="M303 678q57 0 85.5 -21t28.5 -46q0 -35 -35 -35q-33 0 -33 27q0 6 1 11.5t1 13.5q0 16 -14 25.5t-40 9.5q-38 0 -63 -22.5t-25 -60.5q0 -31 13.5 -50.5t42.5 -37.5l40 -25q18 -11 34.5 -23t29.5 -26t21 -32t8 -42q0 -28 -10.5 -49t-28.5 -35.5t-43 -23t-53 -11.5
q29 -20 50.5 -44.5t21.5 -65.5q0 -32 -13 -55.5t-35 -39t-52 -23t-64 -7.5q-32 0 -55.5 6.5t-38.5 17t-22.5 23.5t-7.5 25q0 16 8.5 26t26.5 10q33 0 33 -28q0 -6 -1 -11.5t-1 -13.5q0 -16 15.5 -28.5t45.5 -12.5q46 0 74 25.5t28 68.5q0 19 -7 33.5t-18 26t-24.5 21
t-27.5 18.5l-34 22q-13 8 -27 18t-25.5 23t-19 30t-7.5 40q0 27 13 48t34 35t47.5 21.5t54.5 6.5l-10 7q-13 8 -26 18t-23 23t-16.5 30t-6.5 40q0 28 12 50t32 37.5t47.5 23.5t58.5 8zM248 234q21 2 38.5 10.5t29.5 21.5t18.5 29t6.5 34q0 35 -23 55t-51 37l-16 10h-9
q-43 0 -70 -24t-27 -60q0 -30 15 -48t46 -38l35 -22z" />
    <glyph glyph-name="dieresis" unicode="&#xa8;" horiz-adv-x="356" 
d="M223 633q0 18 12.5 30.5t30.5 12.5t30.5 -12.5t12.5 -30.5t-12.5 -30.5t-30.5 -12.5t-30.5 12.5t-12.5 30.5zM383 633q0 18 12.5 30.5t30.5 12.5t30.5 -12.5t12.5 -30.5t-12.5 -30.5t-30.5 -12.5t-30.5 12.5t-12.5 30.5z" />
    <glyph glyph-name="copyright" unicode="&#xa9;" horiz-adv-x="783" 
d="M215 332q0 48 14 86.5t39.5 65.5t60.5 41.5t78 14.5q35 0 64 -6t42 -10q3 -1 4 0t2 1t1.5 -0.5t1.5 -0.5l1 -1l4 -103h-5q-8 46 -37.5 74.5t-77.5 28.5q-30 0 -55 -14t-43 -38.5t-27.5 -59t-9.5 -75.5q0 -40 10 -74t28 -58.5t43.5 -38t57.5 -13.5q51 0 76 27.5t34 71.5h6
l-6 -94q-23 -10 -50 -16.5t-64 -6.5q-43 0 -78 13t-60.5 38t-39.5 62t-14 85zM728 333q0 -71 -26 -134.5t-71 -110.5t-106 -74.5t-132 -27.5t-133 27t-107.5 73.5t-71.5 109t-26 133.5q0 72 26.5 134.5t72.5 109t108.5 73t134.5 26.5t132.5 -26.5t105 -72t69 -107.5
t24.5 -133zM690 333q0 64 -21.5 120.5t-60.5 99t-93 67t-118 24.5q-66 0 -121.5 -25t-96 -67.5t-63 -100t-22.5 -122.5t22.5 -122.5t62 -100.5t94.5 -68t120 -25q64 0 118.5 25.5t94.5 69t62 101.5t22 124z" />
    <glyph glyph-name="ordfeminine" unicode="&#xaa;" horiz-adv-x="500" 
d="M402 659q0 -1 -1 -3t-1 -3l-7 -29q-5 -26 -13 -62t-17 -81q0 -2 -0.5 -3t-0.5 -3q-1 -1 -1 -3v-3q-5 -23 -9.5 -46t-4.5 -36q0 -7 3 -12.5t9 -5.5q4 0 11 4t14.5 10t15.5 13t15 13q2 -2 3 -2t3 -2q-8 -11 -20 -23.5t-26 -23.5t-29 -18.5t-29 -7.5q-27 0 -27 32
q0 6 1.5 19.5t3.5 23.5l3 24l-4 1q-7 -14 -19 -31.5t-28 -32.5t-36 -25.5t-44 -10.5q-35 0 -55 23t-20 67q0 34 13 76.5t36.5 79t56.5 61.5t74 25q26 0 43 -9.5t25 -26.5q2 5 4.5 14.5t4.5 16.5h53zM334 603q0 14 -12 30t-36 16q-29 0 -53.5 -22.5t-42.5 -56t-28 -72.5
t-10 -73q0 -32 11.5 -49t31.5 -17q24 0 47 21.5t42 56t32 78.5t18 88z" />
    <glyph glyph-name="guillemotleft" unicode="&#xab;" horiz-adv-x="363" 
d="M43 220q17 19 36.5 40.5t38.5 43t37 42t32 38.5h12l-102 -167l53 -182h-12q-8 18 -19.5 41t-24.5 47.5t-26.5 48t-25.5 42.5zM192 220q17 19 36.5 40.5t38.5 43t37 42t32 38.5h12l-102 -167l53 -182h-12q-8 18 -19.5 41t-24.5 47.5t-26.5 48t-25.5 42.5z" />
    <glyph glyph-name="logicalnot" unicode="&#xac;" horiz-adv-x="566" 
d="M25 437h516v-279h-38v240h-478v39z" />
    <glyph glyph-name="registered" unicode="&#xae;" horiz-adv-x="783" 
d="M528 442q0 -43 -27 -68q-26 -25 -68 -29v-2q27 -5 46.5 -26.5t31.5 -64.5l6 -21q5 -18 9.5 -33t11.5 -26t16.5 -17.5t24.5 -7.5v-7q-6 -1 -11.5 -1h-13.5q-24 0 -40 5.5t-26.5 17t-16.5 30t-12 45.5q-5 25 -13 49.5t-25 37.5q-15 11 -41 11h-44v-137q0 -16 3.5 -25
t9.5 -14t15.5 -7t21.5 -3v-7h-31q-13 0 -27 0.5t-23 0.5q-11 0 -22.5 -0.5t-22.5 -0.5h-24v7q11 1 20 3t15 7t9.5 14t3.5 25v282q0 31 -12.5 39t-35.5 10v7q16 0 27 -0.5t18.5 -0.5h12.5h10q37 0 51.5 0.5t26.5 0.5q28 0 48.5 -2t37.5 -8q26 -9 43 -29t17 -55zM473 436
q0 26 -8 43t-21.5 26.5t-30.5 13t-35 3.5h-42v-172h57q17 0 30 4.5t24 12.5q11 9 18.5 27t7.5 42zM728 333q0 -71 -26 -134.5t-71 -110.5t-106 -74.5t-132 -27.5t-133 27t-107.5 73.5t-71.5 109t-26 133.5q0 72 26.5 134.5t72.5 109t108.5 73t134.5 26.5t132.5 -26.5
t105 -72t69 -107.5t24.5 -133zM690 333q0 64 -21.5 120.5t-60.5 99t-93 67t-118 24.5q-66 0 -121.5 -25t-96 -67.5t-63 -100t-22.5 -122.5t22.5 -122.5t62 -100.5t94.5 -68t120 -25q64 0 118.5 25.5t94.5 69t62 101.5t22 124z" />
    <glyph glyph-name="macron" unicode="&#xaf;" horiz-adv-x="356" 
d="M176 566l9 32h237l-9 -32h-237z" />
    <glyph glyph-name="degree" unicode="&#xb0;" horiz-adv-x="364" 
d="M383 546q0 -28 -10.5 -52t-28.5 -41t-42.5 -27t-52.5 -10q-27 0 -51 10t-42 27t-28.5 41t-10.5 52t10.5 51.5t28.5 41t42 27t51 9.5q28 0 52.5 -9.5t42.5 -27t28.5 -41t10.5 -51.5zM357 546q0 48 -31.5 78t-76.5 30t-75.5 -30t-30.5 -78q0 -23 8 -43t22.5 -34.5t33.5 -23
t42 -8.5q22 0 42 8.5t34.5 23t23 34.5t8.5 43z" />
    <glyph glyph-name="plusminus" unicode="&#xb1;" horiz-adv-x="576" 
d="M55 351h208v209h40v-209h210v-39h-210v-210h-40v210h-208v39zM55 39h458v-39h-458v39z" />
    <glyph glyph-name="twosuperior" unicode="&#xb2;" horiz-adv-x="445" 
d="M29 336l6 29q42 32 83.5 69.5t73.5 70.5q46 47 79.5 99t33.5 111q0 49 -21.5 68.5t-57.5 19.5q-32 0 -47.5 -10.5t-15.5 -24.5q0 -6 2 -16q1 -3 1.5 -7.5t0.5 -6.5q0 -10 -7.5 -19t-24.5 -9q-30 0 -30 30q0 32 34.5 55.5t95.5 23.5q28 0 53 -6t43.5 -19t29.5 -33.5
t11 -50.5q0 -25 -10.5 -52t-27 -53t-38 -51.5t-43.5 -47.5q-44 -41 -85.5 -69t-69.5 -45l-20 -12h136q30 0 49.5 2.5t33 10t24 21t21.5 35.5h9q-8 -26 -14.5 -52t-12.5 -52q0 -2 -1 -4.5t-1 -4.5h-293z" />
    <glyph glyph-name="threesuperior" unicode="&#xb3;" horiz-adv-x="439" 
d="M229 824q25 0 48.5 -6t41.5 -18t29 -31t11 -46q0 -32 -13 -55t-32.5 -39t-42 -25t-41.5 -12v-2q17 -4 35.5 -12t33.5 -21t25 -31t10 -42q0 -31 -12.5 -59t-35 -49t-55.5 -33t-73 -12q-26 0 -46 5t-35.5 12t-26 14.5t-16.5 12.5l-2 3q2 2 4.5 5t4.5 5q14 -11 37.5 -22.5
t61.5 -11.5q33 0 57 10.5t40 28.5t24 42.5t8 52.5q0 48 -29 69.5t-75 21.5h-12.5t-12.5 -1l4 16q31 1 59 9t48 24t32 40.5t12 59.5q0 42 -19.5 61t-54.5 19q-32 0 -46.5 -10.5t-14.5 -24.5q0 -5 2 -15t2 -14q0 -11 -8 -19.5t-25 -8.5q-14 0 -22 7.5t-8 21.5q0 30 33.5 55
t94.5 25z" />
    <glyph glyph-name="acute" unicode="&#xb4;" horiz-adv-x="356" 
d="M325 641l12 10t17 5q10 0 19.5 -6.5t9.5 -20.5q0 -13 -7 -20t-16 -12l-173 -90l-4 7z" />
    <glyph glyph-name="mu" unicode="&#xb5;" horiz-adv-x="494" 
d="M138 110q-2 -9 -3.5 -21.5t-1.5 -20.5q0 -16 7 -26.5t28 -10.5q31 0 59.5 28t52.5 70t41.5 91.5t26.5 93.5l23 112h60q-6 -24 -11 -50q-5 -23 -11 -50.5t-11 -56.5q-5 -26 -11 -54t-11 -53q-6 -31 -11.5 -59.5t-5.5 -44.5q0 -11 3 -17.5t11 -6.5q9 0 19.5 5.5t21.5 14
t22 18.5t20 20l7 -7q-11 -14 -25.5 -30.5t-32 -30.5t-35.5 -23.5t-36 -9.5q-36 0 -36 40q0 11 2.5 27.5t6 36t8 40t9.5 38.5h-6q-11 -29 -29.5 -61t-43 -59t-54 -44.5t-62.5 -17.5q-5 0 -8.5 0.5t-7.5 0.5l-41 -196l-63 -21q7 33 13 58.5t10.5 48t8.5 43.5t9 45l76 373
q1 5 1.5 9.5t0.5 9.5q0 29 -22.5 38.5t-54.5 13.5l2 9q48 1 76 2t43.5 2t22 1h10.5q-7 -30 -13 -54.5t-10.5 -44.5t-8.5 -38t-7 -35z" />
    <glyph glyph-name="mu" unicode="&#x3bc;" horiz-adv-x="494" 
d="M138 110q-2 -9 -3.5 -21.5t-1.5 -20.5q0 -16 7 -26.5t28 -10.5q31 0 59.5 28t52.5 70t41.5 91.5t26.5 93.5l23 112h60q-6 -24 -11 -50q-5 -23 -11 -50.5t-11 -56.5q-5 -26 -11 -54t-11 -53q-6 -31 -11.5 -59.5t-5.5 -44.5q0 -11 3 -17.5t11 -6.5q9 0 19.5 5.5t21.5 14
t22 18.5t20 20l7 -7q-11 -14 -25.5 -30.5t-32 -30.5t-35.5 -23.5t-36 -9.5q-36 0 -36 40q0 11 2.5 27.5t6 36t8 40t9.5 38.5h-6q-11 -29 -29.5 -61t-43 -59t-54 -44.5t-62.5 -17.5q-5 0 -8.5 0.5t-7.5 0.5l-41 -196l-63 -21q7 33 13 58.5t10.5 48t8.5 43.5t9 45l76 373
q1 5 1.5 9.5t0.5 9.5q0 29 -22.5 38.5t-54.5 13.5l2 9q48 1 76 2t43.5 2t22 1h10.5q-7 -30 -13 -54.5t-10.5 -44.5t-8.5 -38t-7 -35z" />
    <glyph glyph-name="paragraph" unicode="&#xb6;" horiz-adv-x="525" 
d="M224 -129h-16h-39t-29 -0.5t-24 -0.5h-24l1 9q29 2 50 8t36 23q8 9 14.5 24t11.5 42l63 320q-89 0 -140 40t-51 118q0 51 18.5 87t50 59.5t74.5 36t92 16.5q39 3 103 3h53q36 0 66 1t49 1l-1 -9q-20 -2 -36.5 -5.5t-28.5 -12.5t-21 -25t-14 -44l-116 -589
q-2 -12 -3.5 -23t-1.5 -18q0 -33 19 -41.5t51 -11.5l-1 -9h-22.5t-20 0.5t-25 0.5h-36.5h-17l146 752h-85z" />
    <glyph glyph-name="periodcentered" unicode="&#xb7;" horiz-adv-x="233" 
d="M76 284q0 21 13.5 34.5t34.5 13.5q22 0 35.5 -13.5t13.5 -34.5q0 -22 -13 -35.5t-36 -13.5t-35.5 13.5t-12.5 35.5z" />
    <glyph glyph-name="cedilla" unicode="&#xb8;" horiz-adv-x="356" 
d="M180 -196q10 -5 22 -7t23 -2q35 0 58 19.5t23 55.5q0 32 -15 45.5t-40 13.5q-14 0 -26 -5.5t-18 -11.5l-6 6l73 89h15l-63 -71h1q3 3 14.5 7.5t28.5 4.5q34 0 56 -20t22 -55q0 -22 -8.5 -39t-23 -28.5t-33.5 -17.5t-39 -6q-22 0 -37 4t-29 12z" />
    <glyph glyph-name="onesuperior" unicode="&#xb9;" horiz-adv-x="346" 
d="M183 708q3 21 3 32q0 14 -6.5 17t-20.5 3q-20 0 -41 -4t-28 -6q0 3 1 5.5t1 4.5q39 14 74 26.5t65 26.5h33l-26 -128l-25 -127l-28 -149q-1 -6 -2.5 -14.5t-1.5 -12.5q0 -22 16 -28.5t42 -8.5q0 -2 -1 -4.5t-1 -4.5h-198q0 2 1 4.5t1 4.5q17 1 30.5 4t24 10t17.5 19
t11 31z" />
    <glyph glyph-name="ordmasculine" unicode="&#xba;" horiz-adv-x="461" 
d="M202 340q-32 0 -53 9t-34.5 24.5t-19 37t-5.5 45.5q0 37 13.5 75.5t37.5 70t57 51.5t73 20q31 0 52.5 -9t34.5 -25t18.5 -37t5.5 -46q0 -35 -12.5 -73t-36 -70t-56.5 -52.5t-75 -20.5zM146 432q0 -79 59 -79q30 0 53 25.5t38 61t22.5 74t7.5 64.5q0 34 -11.5 58t-45.5 24
q-30 0 -52.5 -25t-38.5 -61t-24 -75t-8 -67z" />
    <glyph glyph-name="guillemotright" unicode="&#xbb;" horiz-adv-x="346" 
d="M318 199q-17 -19 -36.5 -40.5t-38.5 -43t-37 -42t-32 -38.5h-12l102 167l-53 182h12q8 -18 19.5 -41t24.5 -47.5t26.5 -48t25.5 -42.5zM169 199q-17 -19 -36.5 -40.5t-38.5 -43t-37 -42t-32 -38.5h-12l102 167l-53 182h12q8 -18 19.5 -41t24.5 -47.5t26.5 -48t25.5 -42.5
z" />
    <glyph glyph-name="onequarter" unicode="&#xbc;" horiz-adv-x="741" 
d="M589 66q-3 -17 -3 -25q0 -17 9.5 -23.5t32.5 -8.5l-1 -9h-69h-74l1 9q24 2 38 10.5t20 41.5l13 58h-169l3 17l12 15q20 24 46.5 55t55.5 62.5t57.5 61t52.5 50.5h38q-5 -20 -10 -46t-10.5 -53t-11 -53t-9.5 -47l-7 -35h59l-4 -27h-59zM599 346h-2l-175 -200h138zM486 569
h33l-305 -569h-33zM178 480q2 9 3 15t1 11q0 10 -6 12.5t-17 2.5q-16 0 -33 -3t-22 -5l3 12q59 19 112 43h23q-4 -21 -9.5 -47.5t-11 -54.5t-11 -55t-9.5 -48l-23 -116q-2 -7 -2 -12v-10q0 -18 12 -23t34 -7l-2 -9h-76h-79l1 9q29 2 45 10.5t22 41.5z" />
    <glyph glyph-name="onehalf" unicode="&#xbd;" horiz-adv-x="738" 
d="M475 0q-14 0 -26 -0.5t-20 -0.5h-18l5 29q37 27 67.5 54t59.5 56q35 36 61 77t26 87q0 37 -21 54t-47 17q-23 0 -36.5 -9.5t-13.5 -22.5q0 -5 1.5 -10t1.5 -12q0 -8 -7.5 -15.5t-21.5 -7.5q-11 0 -19 6t-8 18q0 26 30 47t79 21q24 0 45 -5t36.5 -15.5t25 -27t9.5 -39.5
t-8.5 -45t-22 -43t-31 -40.5t-35.5 -36.5q-19 -18 -41 -34.5t-42.5 -30.5t-38.5 -24.5t-28 -16.5v-2q27 2 56 2h58q23 0 38 2t26 8t19.5 17t17.5 29h8q-8 -26 -12.5 -45t-9.5 -41h-163zM486 569h33l-305 -569h-33zM178 480q2 9 3 15t1 11q0 10 -6 12.5t-17 2.5q-16 0 -33 -3
t-22 -5l3 12q59 19 112 43h23q-4 -21 -9.5 -47.5t-11 -54.5t-11 -55t-9.5 -48l-23 -116q-2 -7 -2 -12v-10q0 -18 12 -23t34 -7l-2 -9h-76h-79l1 9q29 2 45 10.5t22 41.5z" />
    <glyph glyph-name="threequarters" unicode="&#xbe;" horiz-adv-x="826" 
d="M204 559q-22 0 -34.5 -8.5t-12.5 -21.5q0 -5 1.5 -10t1.5 -12q0 -8 -7 -15.5t-21 -7.5q-12 0 -20 6t-8 18q0 13 8 25t22 21t33.5 14.5t42.5 5.5q48 0 75 -19.5t27 -62.5q0 -24 -10.5 -41.5t-26 -30.5t-34 -20.5t-35.5 -10.5q15 -3 30.5 -8.5t28 -16t20 -26t7.5 -36.5
q0 -51 -34.5 -87t-99.5 -36q-22 0 -39.5 4.5t-30 11t-21 13.5t-12.5 11l10 13q13 -11 32 -22t48 -11q25 0 43 9t30 23.5t17.5 34t5.5 40.5q0 38 -21.5 54.5t-55.5 16.5h-9.5t-15.5 -2l4 16q25 0 46.5 6.5t38 19t26 32t9.5 46.5q0 30 -16 47t-43 17zM674 66q-3 -17 -3 -25
q0 -17 9.5 -23.5t32.5 -8.5l-1 -9h-69h-74l1 9q24 2 38 10.5t20 41.5l13 58h-169l3 17l12 15q20 24 46.5 55t55.5 62.5t57.5 61t52.5 50.5h38q-5 -20 -10 -46t-10.5 -53t-11 -53t-9.5 -47l-7 -35h59l-4 -27h-59zM684 346h-2l-175 -200h138zM571 569h33l-305 -569h-33z" />
    <glyph glyph-name="questiondown" unicode="&#xbf;" horiz-adv-x="370" 
d="M195 97q-20 -19 -39 -36t-39 -35q-15 -15 -29.5 -30t-25 -32.5t-17 -37.5t-6.5 -44q0 -45 24 -67.5t69 -22.5q42 0 67 17t26 48q0 8 -0.5 14t-0.5 11q0 15 9.5 24t29.5 9q35 0 35 -34q0 -21 -13 -39.5t-36.5 -33t-54.5 -23t-67 -8.5q-69 0 -109.5 27t-40.5 86
q0 48 22.5 84t57.5 70q13 13 30 28l34 30t33.5 30t30.5 27q17 16 27.5 29t16.5 24t9.5 22t5.5 24l1 6h7q2 -8 4 -20t2 -23q0 -32 -17 -64t-46 -60zM313 385q0 -21 -13.5 -34.5t-34.5 -13.5q-22 0 -35.5 13.5t-13.5 34.5q0 22 13 35.5t36 13.5t35.5 -13.5t12.5 -35.5z" />
    <glyph glyph-name="Agrave" unicode="&#xc0;" horiz-adv-x="605" 
d="M-42 8q21 3 34.5 8t24 14.5t19.5 23.5t21 34l218 389q29 49 52.5 93t50.5 92q5 0 10 1q10 2 20 5q4 -29 14 -85t28 -157l55 -319q5 -27 9 -44t11 -28t19.5 -17t34.5 -10l-2 -8q-20 0 -50 0.5t-53 0.5h-28t-32.5 -0.5t-31.5 -0.5h-25l2 8q40 5 59.5 13t19.5 29q0 6 -3 27
l-31 187h-222l-81 -155q-11 -19 -22 -39t-11 -31t10 -16.5t24 -8.5q5 -2 10.5 -2.5t10.5 -1.5t11 -2l-1 -8q-19 0 -46.5 0.5t-47.5 0.5q-23 0 -44 -0.5t-38 -0.5zM352 567q-12 -23 -31 -57t-36 -65l-90 -157h205l-27 155q-4 20 -7.5 42t-6.5 40zM471 746l-4 -7l-173 90
q-9 5 -16 12t-7 20q0 14 9.5 20.5t19.5 6.5q11 0 17 -5l12 -10z" />
    <glyph glyph-name="Aacute" unicode="&#xc1;" horiz-adv-x="605" 
d="M-42 8q21 3 34.5 8t24 14.5t19.5 23.5t21 34l218 389q29 49 52.5 93t50.5 92q5 0 10 1q10 2 20 5q4 -29 14 -85t28 -157l55 -319q5 -27 9 -44t11 -28t19.5 -17t34.5 -10l-2 -8q-20 0 -50 0.5t-53 0.5h-28t-32.5 -0.5t-31.5 -0.5h-25l2 8q40 5 59.5 13t19.5 29q0 6 -3 27
l-31 187h-222l-81 -155q-11 -19 -22 -39t-11 -31t10 -16.5t24 -8.5q5 -2 10.5 -2.5t10.5 -1.5t11 -2l-1 -8q-19 0 -46.5 0.5t-47.5 0.5q-23 0 -44 -0.5t-38 -0.5zM352 567q-12 -23 -31 -57t-36 -65l-90 -157h205l-27 155q-4 20 -7.5 42t-6.5 40zM457 873l12 10t17 5
q10 0 19.5 -6.5t9.5 -20.5q0 -13 -7 -20t-16 -12l-173 -90l-4 7z" />
    <glyph glyph-name="Acircumflex" unicode="&#xc2;" horiz-adv-x="605" 
d="M-42 8q21 3 34.5 8t24 14.5t19.5 23.5t21 34l218 389q29 49 52.5 93t50.5 92q5 0 10 1q10 2 20 5q4 -29 14 -85t28 -157l55 -319q5 -27 9 -44t11 -28t19.5 -17t34.5 -10l-2 -8q-20 0 -50 0.5t-53 0.5h-28t-32.5 -0.5t-31.5 -0.5h-25l2 8q40 5 59.5 13t19.5 29q0 6 -3 27
l-31 187h-222l-81 -155q-11 -19 -22 -39t-11 -31t10 -16.5t24 -8.5q5 -2 10.5 -2.5t10.5 -1.5t11 -2l-1 -8q-19 0 -46.5 0.5t-47.5 0.5q-23 0 -44 -0.5t-38 -0.5zM352 567q-12 -23 -31 -57t-36 -65l-90 -157h205l-27 155q-4 20 -7.5 42t-6.5 40zM308 735l-5 6l120 158h16
l61 -158l-7 -5l-71 102z" />
    <glyph glyph-name="Atilde" unicode="&#xc3;" horiz-adv-x="605" 
d="M-42 8q21 3 34.5 8t24 14.5t19.5 23.5t21 34l218 389q29 49 52.5 93t50.5 92q5 0 10 1q10 2 20 5q4 -29 14 -85t28 -157l55 -319q5 -27 9 -44t11 -28t19.5 -17t34.5 -10l-2 -8q-20 0 -50 0.5t-53 0.5h-28t-32.5 -0.5t-31.5 -0.5h-25l2 8q40 5 59.5 13t19.5 29q0 6 -3 27
l-31 187h-222l-81 -155q-11 -19 -22 -39t-11 -31t10 -16.5t24 -8.5q5 -2 10.5 -2.5t10.5 -1.5t11 -2l-1 -8q-19 0 -46.5 0.5t-47.5 0.5q-23 0 -44 -0.5t-38 -0.5zM352 567q-12 -23 -31 -57t-36 -65l-90 -157h205l-27 155q-4 20 -7.5 42t-6.5 40zM365 850q10 0 20 -2t30 -10
l28 -12q14 -6 26.5 -11t23.5 -5q18 0 31 7.5t24 27.5l7 -3q-12 -39 -31.5 -52t-45.5 -13q-11 0 -21.5 2.5t-30.5 10.5l-28 12q-14 6 -26.5 10.5t-23.5 4.5q-17 0 -32.5 -12.5t-26.5 -32.5l-7 3q12 39 33 57t50 18z" />
    <glyph glyph-name="Adieresis" unicode="&#xc4;" horiz-adv-x="605" 
d="M-42 8q21 3 34.5 8t24 14.5t19.5 23.5t21 34l218 389q29 49 52.5 93t50.5 92q5 0 10 1q10 2 20 5q4 -29 14 -85t28 -157l55 -319q5 -27 9 -44t11 -28t19.5 -17t34.5 -10l-2 -8q-20 0 -50 0.5t-53 0.5h-28t-32.5 -0.5t-31.5 -0.5h-25l2 8q40 5 59.5 13t19.5 29q0 6 -3 27
l-31 187h-222l-81 -155q-11 -19 -22 -39t-11 -31t10 -16.5t24 -8.5q5 -2 10.5 -2.5t10.5 -1.5t11 -2l-1 -8q-19 0 -46.5 0.5t-47.5 0.5q-23 0 -44 -0.5t-38 -0.5zM352 567q-12 -23 -31 -57t-36 -65l-90 -157h205l-27 155q-4 20 -7.5 42t-6.5 40zM286 822q0 18 12.5 30.5
t30.5 12.5t30.5 -12.5t12.5 -30.5t-12.5 -30.5t-30.5 -12.5t-30.5 12.5t-12.5 30.5zM446 822q0 18 12.5 30.5t30.5 12.5t30.5 -12.5t12.5 -30.5t-12.5 -30.5t-30.5 -12.5t-30.5 12.5t-12.5 30.5z" />
    <glyph glyph-name="Aring" unicode="&#xc5;" horiz-adv-x="605" 
d="M-42 8q21 3 34.5 8t24 14.5t19.5 23.5t21 34l218 389q29 49 52.5 93t50.5 92q5 0 10 1q10 2 20 5q4 -29 14 -85t28 -157l55 -319q5 -27 9 -44t11 -28t19.5 -17t34.5 -10l-2 -8q-20 0 -50 0.5t-53 0.5h-28t-32.5 -0.5t-31.5 -0.5h-25l2 8q40 5 59.5 13t19.5 29q0 6 -3 27
l-31 187h-222l-81 -155q-11 -19 -22 -39t-11 -31t10 -16.5t24 -8.5q5 -2 10.5 -2.5t10.5 -1.5t11 -2l-1 -8q-19 0 -46.5 0.5t-47.5 0.5q-23 0 -44 -0.5t-38 -0.5zM352 567q-12 -23 -31 -57t-36 -65l-90 -157h205l-27 155q-4 20 -7.5 42t-6.5 40zM495 811q0 -35 -23.5 -57
t-58.5 -22q-34 0 -57.5 22t-23.5 57q0 34 23.5 56t57.5 22t58 -22t24 -56zM470 811q0 26 -16 42t-41 16q-23 0 -39.5 -16t-16.5 -42t16.5 -42.5t39.5 -16.5q25 0 41 16.5t16 42.5z" />
    <glyph glyph-name="AE" unicode="&#xc6;" horiz-adv-x="871" 
d="M760 656q40 0 68.5 1.5t49.5 3.5l1 -1l-15 -157h-11q0 51 -10.5 78t-34.5 40q-20 11 -47.5 14t-71.5 3h-120l-37 -299h23.5t33 0.5t34 2t26.5 3.5q15 4 26 11t20 18.5t16.5 29t15.5 42.5h12q-16 -58 -26.5 -114.5t-19.5 -117.5h-12q1 8 1 15v14q0 34 -8 50t-31 22
q-9 2 -25 3.5t-32.5 2t-32 1t-23.5 0.5l-29 -232q-1 -8 -1.5 -13.5t-0.5 -10.5q0 -14 4 -23.5t14 -15t27.5 -8t43.5 -2.5h10q48 0 80.5 8.5t56 27t41 47.5t35.5 69h10q0 -1 -3 -14.5t-7.5 -32.5t-9 -41t-9 -40.5t-7.5 -30.5l-3 -12q-19 2 -44.5 2h-63.5h-121.5t-62 0.5
t-28 0.5h-20.5q-30 0 -62 -0.5t-58 -0.5l3 9q20 2 37 6t30 13.5t21.5 26t11.5 44.5l27 222h-166l-142 -191q-25 -33 -40 -56t-15 -37q0 -16 19.5 -21t49.5 -7l-1 -9q-9 0 -22 0.5t-27.5 0.5h-28h-23.5q-22 0 -46 -0.5t-41 -0.5l1 9q21 3 36.5 9.5t30 18.5t28.5 28.5t31 39.5
l341 458q11 14 24.5 32t13.5 30q0 13 -18.5 17.5t-42.5 6.5l1 9q28 -2 63 -2h67h215zM304 342h150l18 145q2 16 4.5 34.5t4.5 33.5q3 18 5 35h-2q-9 -12 -23.5 -33t-31.5 -44.5t-33 -46.5t-28 -38z" />
    <glyph glyph-name="Ccedilla" unicode="&#xc7;" horiz-adv-x="567" 
d="M219 -196q10 -5 22 -7t23 -2q35 0 58 19.5t23 55.5q0 32 -15 45.5t-40 13.5q-14 0 -26 -5.5t-18 -11.5l-6 6l58 71q-50 1 -92 17t-72.5 48t-47.5 82t-17 118q0 49 9.5 99t28.5 96.5t47.5 87t66.5 70.5t85.5 47.5t105.5 17.5q59 0 94.5 -11.5t62.5 -22.5q3 0 7 2q5 0 9 -4
l-27 -173h-13q1 8 1 18.5v18.5q0 31 -7 58.5t-22.5 48.5t-41.5 33t-64 12q-43 0 -79 -18t-64.5 -48t-50.5 -69.5t-36.5 -82t-22 -85t-7.5 -79.5q0 -121 50.5 -186t132.5 -65q28 0 51.5 7.5t43 19t34.5 26t26 28.5l11 -8q-7 -9 -20.5 -26t-36 -33.5t-54.5 -29.5t-77 -14
l-47 -53h1q3 3 14.5 7.5t28.5 4.5q34 0 56 -20t22 -55q0 -22 -8.5 -39t-23 -28.5t-33.5 -17.5t-39 -6q-22 0 -37 4t-29 12z" />
    <glyph glyph-name="Egrave" unicode="&#xc8;" horiz-adv-x="554" 
d="M117 1q-30 0 -64 -0.5t-60 -0.5l1 9q20 2 35.5 5.5t27.5 12.5t20 25t14 44l91 465q4 20 4 35q0 32 -19.5 41t-51.5 12l1 9q9 0 24 -0.5t32 -0.5t35.5 -0.5t34.5 -0.5h201q40 0 68.5 1.5t49.5 3.5l1 -1l-15 -157h-11q0 51 -10.5 78t-34.5 40q-20 11 -47.5 14t-71.5 3h-104
l-56 -289h23.5t33 0.5t34 2t26.5 3.5q15 4 26 11t20 18.5t16.5 29t15.5 42.5h12q-16 -58 -26.5 -114.5t-19.5 -117.5h-12q1 8 1 15v14q0 34 -8 50t-31 22q-9 2 -25 3.5t-33.5 2t-32.5 1t-23 0.5l-44 -236q-2 -14 -3.5 -24t-1.5 -17q0 -11 4 -18.5t14.5 -12t28.5 -6t46 -1.5
h12q53 0 87.5 7.5t58.5 24.5t41.5 45t36.5 69h10l-36 -165q-38 3 -115 3h-231zM454 746l-4 -7l-173 90q-9 5 -16 12t-7 20q0 14 9.5 20.5t19.5 6.5q11 0 17 -5l12 -10z" />
    <glyph glyph-name="Eacute" unicode="&#xc9;" horiz-adv-x="554" 
d="M117 1q-30 0 -64 -0.5t-60 -0.5l1 9q20 2 35.5 5.5t27.5 12.5t20 25t14 44l91 465q4 20 4 35q0 32 -19.5 41t-51.5 12l1 9q9 0 24 -0.5t32 -0.5t35.5 -0.5t34.5 -0.5h201q40 0 68.5 1.5t49.5 3.5l1 -1l-15 -157h-11q0 51 -10.5 78t-34.5 40q-20 11 -47.5 14t-71.5 3h-104
l-56 -289h23.5t33 0.5t34 2t26.5 3.5q15 4 26 11t20 18.5t16.5 29t15.5 42.5h12q-16 -58 -26.5 -114.5t-19.5 -117.5h-12q1 8 1 15v14q0 34 -8 50t-31 22q-9 2 -25 3.5t-33.5 2t-32.5 1t-23 0.5l-44 -236q-2 -14 -3.5 -24t-1.5 -17q0 -11 4 -18.5t14.5 -12t28.5 -6t46 -1.5
h12q53 0 87.5 7.5t58.5 24.5t41.5 45t36.5 69h10l-36 -165q-38 3 -115 3h-231zM450 873l12 10t17 5q10 0 19.5 -6.5t9.5 -20.5q0 -13 -7 -20t-16 -12l-173 -90l-4 7z" />
    <glyph glyph-name="Ecircumflex" unicode="&#xca;" horiz-adv-x="554" 
d="M117 1q-30 0 -64 -0.5t-60 -0.5l1 9q20 2 35.5 5.5t27.5 12.5t20 25t14 44l91 465q4 20 4 35q0 32 -19.5 41t-51.5 12l1 9q9 0 24 -0.5t32 -0.5t35.5 -0.5t34.5 -0.5h201q40 0 68.5 1.5t49.5 3.5l1 -1l-15 -157h-11q0 51 -10.5 78t-34.5 40q-20 11 -47.5 14t-71.5 3h-104
l-56 -289h23.5t33 0.5t34 2t26.5 3.5q15 4 26 11t20 18.5t16.5 29t15.5 42.5h12q-16 -58 -26.5 -114.5t-19.5 -117.5h-12q1 8 1 15v14q0 34 -8 50t-31 22q-9 2 -25 3.5t-33.5 2t-32.5 1t-23 0.5l-44 -236q-2 -14 -3.5 -24t-1.5 -17q0 -11 4 -18.5t14.5 -12t28.5 -6t46 -1.5
h12q53 0 87.5 7.5t58.5 24.5t41.5 45t36.5 69h10l-36 -165q-38 3 -115 3h-231zM277 735l-5 6l120 158h16l61 -158l-7 -5l-71 102z" />
    <glyph glyph-name="Edieresis" unicode="&#xcb;" horiz-adv-x="554" 
d="M117 1q-30 0 -64 -0.5t-60 -0.5l1 9q20 2 35.5 5.5t27.5 12.5t20 25t14 44l91 465q4 20 4 35q0 32 -19.5 41t-51.5 12l1 9q9 0 24 -0.5t32 -0.5t35.5 -0.5t34.5 -0.5h201q40 0 68.5 1.5t49.5 3.5l1 -1l-15 -157h-11q0 51 -10.5 78t-34.5 40q-20 11 -47.5 14t-71.5 3h-104
l-56 -289h23.5t33 0.5t34 2t26.5 3.5q15 4 26 11t20 18.5t16.5 29t15.5 42.5h12q-16 -58 -26.5 -114.5t-19.5 -117.5h-12q1 8 1 15v14q0 34 -8 50t-31 22q-9 2 -25 3.5t-33.5 2t-32.5 1t-23 0.5l-44 -236q-2 -14 -3.5 -24t-1.5 -17q0 -11 4 -18.5t14.5 -12t28.5 -6t46 -1.5
h12q53 0 87.5 7.5t58.5 24.5t41.5 45t36.5 69h10l-36 -165q-38 3 -115 3h-231zM258 822q0 18 12.5 30.5t30.5 12.5t30.5 -12.5t12.5 -30.5t-12.5 -30.5t-30.5 -12.5t-30.5 12.5t-12.5 30.5zM418 822q0 18 12.5 30.5t30.5 12.5t30.5 -12.5t12.5 -30.5t-12.5 -30.5
t-30.5 -12.5t-30.5 12.5t-12.5 30.5z" />
    <glyph glyph-name="Igrave" unicode="&#xcc;" horiz-adv-x="292" 
d="M165 98q-2 -11 -3 -20.5t-1 -16.5q0 -16 5 -25.5t14.5 -15t22.5 -8.5t29 -4l-2 -8h-39t-29.5 0.5t-25 0.5h-24.5q-17 0 -48 -0.5t-71 -0.5l2 8q19 2 34.5 5.5t27.5 13t20.5 26t14.5 45.5q22 113 45.5 230.5t44.5 230.5q2 11 3 20t1 16q0 33 -19.5 42.5t-51.5 12.5l2 8
q23 -1 49 -1.5t69 -0.5q29 0 58.5 0.5t61.5 1.5l-2 -8q-20 -2 -36 -5.5t-28 -13t-20.5 -26.5t-14.5 -45zM338 746l-4 -7l-173 90q-9 5 -16 12t-7 20q0 14 9.5 20.5t19.5 6.5q11 0 17 -5l12 -10z" />
    <glyph glyph-name="Iacute" unicode="&#xcd;" horiz-adv-x="292" 
d="M165 98q-2 -11 -3 -20.5t-1 -16.5q0 -16 5 -25.5t14.5 -15t22.5 -8.5t29 -4l-2 -8h-39t-29.5 0.5t-25 0.5h-24.5q-17 0 -48 -0.5t-71 -0.5l2 8q19 2 34.5 5.5t27.5 13t20.5 26t14.5 45.5q22 113 45.5 230.5t44.5 230.5q2 11 3 20t1 16q0 33 -19.5 42.5t-51.5 12.5l2 8
q23 -1 49 -1.5t69 -0.5q29 0 58.5 0.5t61.5 1.5l-2 -8q-20 -2 -36 -5.5t-28 -13t-20.5 -26.5t-14.5 -45zM321 873l12 10t17 5q10 0 19.5 -6.5t9.5 -20.5q0 -13 -7 -20t-16 -12l-173 -90l-4 7z" />
    <glyph glyph-name="Icircumflex" unicode="&#xce;" horiz-adv-x="292" 
d="M165 98q-2 -11 -3 -20.5t-1 -16.5q0 -16 5 -25.5t14.5 -15t22.5 -8.5t29 -4l-2 -8h-39t-29.5 0.5t-25 0.5h-24.5q-17 0 -48 -0.5t-71 -0.5l2 8q19 2 34.5 5.5t27.5 13t20.5 26t14.5 45.5q22 113 45.5 230.5t44.5 230.5q2 11 3 20t1 16q0 33 -19.5 42.5t-51.5 12.5l2 8
q23 -1 49 -1.5t69 -0.5q29 0 58.5 0.5t61.5 1.5l-2 -8q-20 -2 -36 -5.5t-28 -13t-20.5 -26.5t-14.5 -45zM159 735l-5 6l120 158h16l61 -158l-7 -5l-71 102z" />
    <glyph glyph-name="Idieresis" unicode="&#xcf;" horiz-adv-x="292" 
d="M165 98q-2 -11 -3 -20.5t-1 -16.5q0 -16 5 -25.5t14.5 -15t22.5 -8.5t29 -4l-2 -8h-39t-29.5 0.5t-25 0.5h-24.5q-17 0 -48 -0.5t-71 -0.5l2 8q19 2 34.5 5.5t27.5 13t20.5 26t14.5 45.5q22 113 45.5 230.5t44.5 230.5q2 11 3 20t1 16q0 33 -19.5 42.5t-51.5 12.5l2 8
q23 -1 49 -1.5t69 -0.5q29 0 58.5 0.5t61.5 1.5l-2 -8q-20 -2 -36 -5.5t-28 -13t-20.5 -26.5t-14.5 -45zM138 822q0 18 12.5 30.5t30.5 12.5t30.5 -12.5t12.5 -30.5t-12.5 -30.5t-30.5 -12.5t-30.5 12.5t-12.5 30.5zM298 822q0 18 12.5 30.5t30.5 12.5t30.5 -12.5
t12.5 -30.5t-12.5 -30.5t-30.5 -12.5t-30.5 12.5t-12.5 30.5z" />
    <glyph glyph-name="Eth" unicode="&#xd0;" horiz-adv-x="664" 
d="M104 1q-30 0 -56 -0.5t-52 -0.5l1 9q20 2 35.5 5.5t27.5 12.5t20 25t14 44l47 241h-87l3 15h87l41 209q2 12 3 20t1 15q0 32 -19.5 41t-51.5 12l1 9q19 0 48.5 -1.5t61.5 -1.5q29 0 48.5 0.5t38.5 0.5q52 0 103 -7t94 -27q53 -25 86 -75.5t33 -136.5q0 -85 -24.5 -162
t-77.5 -134q-50 -54 -125.5 -84.5t-180.5 -30.5q-35 0 -62 1t-58 1zM241 18q84 0 143 35.5t96.5 93.5t55 132t17.5 151q0 62 -18.5 102t-49.5 63t-72 32t-87 9q-14 0 -24.5 -0.5t-17.5 -1.5q-8 -1 -13 -2l-54 -280h104l-3 -15h-104l-45 -234q-3 -15 -5 -28t-2 -21
q0 -21 18 -28.5t61 -7.5z" />
    <glyph glyph-name="Ntilde" unicode="&#xd1;" horiz-adv-x="656" 
d="M602 558q2 12 3 20t1 16q0 31 -19.5 40t-53.5 12l2 12q19 -1 40.5 -1.5t53.5 -0.5q36 0 59 0.5t42 1.5l-2 -12q-20 -2 -36 -5.5t-28 -12.5t-20.5 -25t-13.5 -44l-110 -569h-12l-254 491l-26.5 53t-17.5 36h-2q-2 -16 -6.5 -38.5l-12.5 -62.5l-71 -370q-2 -11 -3 -21
t-1 -17q0 -29 21 -37.5t60 -11.5l-2 -12h-22t-19.5 0.5t-25 0.5h-37.5q-30 0 -51 -0.5t-47 -0.5l2 12q20 2 35.5 5.5t27.5 12.5t20 25t14 44l89 459q2 12 3 20t1 16q0 31 -19.5 40t-51.5 12l2 12q19 0 40.5 -1t47.5 -1h16.5t9 0.5t6 1t8.5 0.5l275 -529h2q1 7 4 23t6.5 35.5
t7.5 40.5t8 40zM391 850q10 0 20 -2t30 -10l28 -12q14 -6 26.5 -11t23.5 -5q18 0 31 7.5t24 27.5l7 -3q-12 -39 -31.5 -52t-45.5 -13q-11 0 -21.5 2.5t-30.5 10.5l-28 12q-14 6 -26.5 10.5t-23.5 4.5q-17 0 -32.5 -12.5t-26.5 -32.5l-7 3q12 39 33 57t50 18z" />
    <glyph glyph-name="Ograve" unicode="&#xd2;" horiz-adv-x="678" 
d="M653 411q0 -32 -6.5 -75.5t-21.5 -90.5t-40.5 -93t-64.5 -82t-92.5 -58.5t-123.5 -22.5q-62 0 -106.5 17t-73 50t-42 81t-13.5 110q0 38 7.5 84.5t24.5 94t44 92t65.5 78.5t89.5 55t117 21q115 0 175.5 -66.5t60.5 -194.5zM575 436q0 42 -8.5 81t-28 69t-50 48t-73.5 18
q-50 0 -89 -22.5t-69 -58.5t-51 -82t-34 -93t-19 -91.5t-6 -77.5q0 -41 7.5 -80.5t26 -70.5t49 -50t76.5 -19q53 0 93.5 23.5t70 61.5t50 85.5t32.5 95t17.5 90.5t5.5 73zM517 746l-4 -7l-173 90q-9 5 -16 12t-7 20q0 14 9.5 20.5t19.5 6.5q11 0 17 -5l12 -10z" />
    <glyph glyph-name="Oacute" unicode="&#xd3;" horiz-adv-x="678" 
d="M653 411q0 -32 -6.5 -75.5t-21.5 -90.5t-40.5 -93t-64.5 -82t-92.5 -58.5t-123.5 -22.5q-62 0 -106.5 17t-73 50t-42 81t-13.5 110q0 38 7.5 84.5t24.5 94t44 92t65.5 78.5t89.5 55t117 21q115 0 175.5 -66.5t60.5 -194.5zM575 436q0 42 -8.5 81t-28 69t-50 48t-73.5 18
q-50 0 -89 -22.5t-69 -58.5t-51 -82t-34 -93t-19 -91.5t-6 -77.5q0 -41 7.5 -80.5t26 -70.5t49 -50t76.5 -19q53 0 93.5 23.5t70 61.5t50 85.5t32.5 95t17.5 90.5t5.5 73zM513 873l12 10t17 5q10 0 19.5 -6.5t9.5 -20.5q0 -13 -7 -20t-16 -12l-173 -90l-4 7z" />
    <glyph glyph-name="Ocircumflex" unicode="&#xd4;" horiz-adv-x="678" 
d="M653 411q0 -32 -6.5 -75.5t-21.5 -90.5t-40.5 -93t-64.5 -82t-92.5 -58.5t-123.5 -22.5q-62 0 -106.5 17t-73 50t-42 81t-13.5 110q0 38 7.5 84.5t24.5 94t44 92t65.5 78.5t89.5 55t117 21q115 0 175.5 -66.5t60.5 -194.5zM575 436q0 42 -8.5 81t-28 69t-50 48t-73.5 18
q-50 0 -89 -22.5t-69 -58.5t-51 -82t-34 -93t-19 -91.5t-6 -77.5q0 -41 7.5 -80.5t26 -70.5t49 -50t76.5 -19q53 0 93.5 23.5t70 61.5t50 85.5t32.5 95t17.5 90.5t5.5 73zM350 735l-5 6l120 158h16l61 -158l-7 -5l-71 102z" />
    <glyph glyph-name="Otilde" unicode="&#xd5;" horiz-adv-x="678" 
d="M653 411q0 -32 -6.5 -75.5t-21.5 -90.5t-40.5 -93t-64.5 -82t-92.5 -58.5t-123.5 -22.5q-62 0 -106.5 17t-73 50t-42 81t-13.5 110q0 38 7.5 84.5t24.5 94t44 92t65.5 78.5t89.5 55t117 21q115 0 175.5 -66.5t60.5 -194.5zM575 436q0 42 -8.5 81t-28 69t-50 48t-73.5 18
q-50 0 -89 -22.5t-69 -58.5t-51 -82t-34 -93t-19 -91.5t-6 -77.5q0 -41 7.5 -80.5t26 -70.5t49 -50t76.5 -19q53 0 93.5 23.5t70 61.5t50 85.5t32.5 95t17.5 90.5t5.5 73zM399 850q10 0 20 -2t30 -10l28 -12q14 -6 26.5 -11t23.5 -5q18 0 31 7.5t24 27.5l7 -3
q-12 -39 -31.5 -52t-45.5 -13q-11 0 -21.5 2.5t-30.5 10.5l-28 12q-14 6 -26.5 10.5t-23.5 4.5q-17 0 -32.5 -12.5t-26.5 -32.5l-7 3q12 39 33 57t50 18z" />
    <glyph glyph-name="Odieresis" unicode="&#xd6;" horiz-adv-x="678" 
d="M653 411q0 -32 -6.5 -75.5t-21.5 -90.5t-40.5 -93t-64.5 -82t-92.5 -58.5t-123.5 -22.5q-62 0 -106.5 17t-73 50t-42 81t-13.5 110q0 38 7.5 84.5t24.5 94t44 92t65.5 78.5t89.5 55t117 21q115 0 175.5 -66.5t60.5 -194.5zM575 436q0 42 -8.5 81t-28 69t-50 48t-73.5 18
q-50 0 -89 -22.5t-69 -58.5t-51 -82t-34 -93t-19 -91.5t-6 -77.5q0 -41 7.5 -80.5t26 -70.5t49 -50t76.5 -19q53 0 93.5 23.5t70 61.5t50 85.5t32.5 95t17.5 90.5t5.5 73zM337 822q0 18 12.5 30.5t30.5 12.5t30.5 -12.5t12.5 -30.5t-12.5 -30.5t-30.5 -12.5t-30.5 12.5
t-12.5 30.5zM497 822q0 18 12.5 30.5t30.5 12.5t30.5 -12.5t12.5 -30.5t-12.5 -30.5t-30.5 -12.5t-30.5 12.5t-12.5 30.5z" />
    <glyph glyph-name="multiply" unicode="&#xd7;" horiz-adv-x="561" 
d="M60 34l194 194l-191 188l33 33l188 -190l186 188l32 -33l-186 -186l192 -190l-32 -32l-190 192l-191 -195z" />
    <glyph glyph-name="Oslash" unicode="&#xd8;" horiz-adv-x="678" 
d="M653 411q0 -32 -6.5 -75.5t-21.5 -90.5t-40.5 -93t-64.5 -82t-92.5 -58.5t-123.5 -22.5q-15 0 -28.5 1t-26.5 3l-36 -88h-28l38 93q-81 20 -117.5 83.5t-36.5 165.5q0 38 7.5 84.5t24.5 94t44 92t65.5 78.5t89.5 55t117 21q22 0 42 -2.5t38 -7.5l30 72h29l-34 -81
q131 -53 131 -242zM147 227q0 -32 4.5 -63t14.5 -58t26.5 -48.5t41.5 -34.5l252 612q-31 17 -71 17q-50 0 -89 -22.5t-69 -58.5t-51 -82t-34 -93t-19 -91.5t-6 -77.5zM575 436q0 55 -16 104.5t-51 79.5l-250 -607q21 -6 48 -6q53 0 93.5 23.5t70 61.5t50 85.5t32.5 95
t17.5 90.5t5.5 73z" />
    <glyph glyph-name="Ugrave" unicode="&#xd9;" horiz-adv-x="634" 
d="M582 561q2 12 3 20t1 16q0 31 -19.5 40t-53.5 12l1 9q19 -1 43 -1.5t56 -0.5q36 0 60.5 0.5t43.5 1.5l-1 -9q-20 -2 -36 -5.5t-28 -12.5t-20.5 -25t-13.5 -44l-70 -366q-8 -39 -19 -76.5t-36 -66t-69 -46t-117 -17.5q-94 0 -144.5 39.5t-50.5 120.5q0 22 3 45.5t7 44.5
l61 321q2 12 3 20t1 16q0 31 -19.5 40t-51.5 12l2 9q19 0 49 -1t62 -1q36 0 72 1t55 1l-2 -9q-20 -2 -36 -5.5t-28 -12.5t-20 -25t-14 -44l-63 -325q-5 -27 -8 -50t-3 -43q0 -54 33 -89.5t105 -35.5q56 0 90.5 14.5t55 39.5t30 57.5t16.5 67.5zM511 746l-4 -7l-173 90
q-9 5 -16 12t-7 20q0 14 9.5 20.5t19.5 6.5q11 0 17 -5l12 -10z" />
    <glyph glyph-name="Uacute" unicode="&#xda;" horiz-adv-x="634" 
d="M582 561q2 12 3 20t1 16q0 31 -19.5 40t-53.5 12l1 9q19 -1 43 -1.5t56 -0.5q36 0 60.5 0.5t43.5 1.5l-1 -9q-20 -2 -36 -5.5t-28 -12.5t-20.5 -25t-13.5 -44l-70 -366q-8 -39 -19 -76.5t-36 -66t-69 -46t-117 -17.5q-94 0 -144.5 39.5t-50.5 120.5q0 22 3 45.5t7 44.5
l61 321q2 12 3 20t1 16q0 31 -19.5 40t-51.5 12l2 9q19 0 49 -1t62 -1q36 0 72 1t55 1l-2 -9q-20 -2 -36 -5.5t-28 -12.5t-20 -25t-14 -44l-63 -325q-5 -27 -8 -50t-3 -43q0 -54 33 -89.5t105 -35.5q56 0 90.5 14.5t55 39.5t30 57.5t16.5 67.5zM489 873l12 10t17 5
q10 0 19.5 -6.5t9.5 -20.5q0 -13 -7 -20t-16 -12l-173 -90l-4 7z" />
    <glyph glyph-name="Ucircumflex" unicode="&#xdb;" horiz-adv-x="634" 
d="M582 561q2 12 3 20t1 16q0 31 -19.5 40t-53.5 12l1 9q19 -1 43 -1.5t56 -0.5q36 0 60.5 0.5t43.5 1.5l-1 -9q-20 -2 -36 -5.5t-28 -12.5t-20.5 -25t-13.5 -44l-70 -366q-8 -39 -19 -76.5t-36 -66t-69 -46t-117 -17.5q-94 0 -144.5 39.5t-50.5 120.5q0 22 3 45.5t7 44.5
l61 321q2 12 3 20t1 16q0 31 -19.5 40t-51.5 12l2 9q19 0 49 -1t62 -1q36 0 72 1t55 1l-2 -9q-20 -2 -36 -5.5t-28 -12.5t-20 -25t-14 -44l-63 -325q-5 -27 -8 -50t-3 -43q0 -54 33 -89.5t105 -35.5q56 0 90.5 14.5t55 39.5t30 57.5t16.5 67.5zM336 735l-5 6l120 158h16
l61 -158l-7 -5l-71 102z" />
    <glyph glyph-name="Udieresis" unicode="&#xdc;" horiz-adv-x="634" 
d="M582 561q2 12 3 20t1 16q0 31 -19.5 40t-53.5 12l1 9q19 -1 43 -1.5t56 -0.5q36 0 60.5 0.5t43.5 1.5l-1 -9q-20 -2 -36 -5.5t-28 -12.5t-20.5 -25t-13.5 -44l-70 -366q-8 -39 -19 -76.5t-36 -66t-69 -46t-117 -17.5q-94 0 -144.5 39.5t-50.5 120.5q0 22 3 45.5t7 44.5
l61 321q2 12 3 20t1 16q0 31 -19.5 40t-51.5 12l2 9q19 0 49 -1t62 -1q36 0 72 1t55 1l-2 -9q-20 -2 -36 -5.5t-28 -12.5t-20 -25t-14 -44l-63 -325q-5 -27 -8 -50t-3 -43q0 -54 33 -89.5t105 -35.5q56 0 90.5 14.5t55 39.5t30 57.5t16.5 67.5zM323 822q0 18 12.5 30.5
t30.5 12.5t30.5 -12.5t12.5 -30.5t-12.5 -30.5t-30.5 -12.5t-30.5 12.5t-12.5 30.5zM483 822q0 18 12.5 30.5t30.5 12.5t30.5 -12.5t12.5 -30.5t-12.5 -30.5t-30.5 -12.5t-30.5 12.5t-12.5 30.5z" />
    <glyph glyph-name="Yacute" unicode="&#xdd;" horiz-adv-x="578" 
d="M323 96q-2 -12 -3 -21t-1 -16q0 -29 20.5 -38.5t60.5 -11.5l-2 -9h-25t-26 0.5t-31 0.5h-40h-33t-36 -0.5t-35 -0.5h-30l2 9q24 2 41.5 5.5t30.5 12.5t21.5 25t13.5 44l40 207l-105 261q-9 24 -17.5 39.5t-19 25t-24.5 14t-35 6.5l4 9q32 -1 58 -1.5t58 -0.5h30.5h28
t28 0.5t31.5 1.5l-3 -9q-35 -1 -55 -9t-20 -30q0 -14 6.5 -31.5t12.5 -31.5l86 -211l171 236q17 23 21.5 32.5t4.5 17.5q0 13 -15 19t-48 8l2 9q15 0 25.5 -0.5t19.5 -1t19 -0.5h25q29 0 48 0.5t48 1.5l-2 -9q-21 -2 -37 -8t-29.5 -17t-27 -26.5t-29.5 -37.5l-187 -253z
M492 873l12 10t17 5q10 0 19.5 -6.5t9.5 -20.5q0 -13 -7 -20t-16 -12l-173 -90l-4 7z" />
    <glyph glyph-name="Thorn" unicode="&#xde;" horiz-adv-x="501" 
d="M353 649q-20 -2 -36 -5.5t-28.5 -12.5t-21.5 -24t-14 -39q8 1 17 1h22q48 0 85.5 -5t66.5 -19q36 -17 56.5 -48.5t20.5 -82.5q0 -47 -16.5 -86t-46.5 -66.5t-72.5 -43t-93.5 -15.5q-41 0 -64.5 6.5t-39.5 12.5l-8 -44q-2 -9 -5 -23.5t-6 -30.5t-5 -31t-2 -24
q0 -14 3.5 -24t14 -17.5t28.5 -12t48 -6.5l-2 -11q-15 1 -32.5 1.5t-35.5 1t-35 0.5h-30q-33 0 -67.5 -0.5t-60.5 -0.5l1 9q20 2 35.5 5.5t27.5 12.5t20 25t14 44l91 465q2 12 3 20t1 16q0 31 -19.5 40t-51.5 12l1 9q9 0 24 -0.5t32 -0.5t35.5 -0.5t34.5 -0.5q36 0 64.5 1
t47.5 1zM293 550q-22 0 -32 -1t-12 -1l-58 -309q12 -5 30 -7.5t40 -2.5q39 0 72.5 13t58.5 37t39 59t14 80q0 44 -14 70.5t-36 40t-49 17.5t-53 4z" />
    <glyph glyph-name="germandbls" unicode="&#xdf;" horiz-adv-x="481" 
d="M137 443q9 55 25.5 101t42.5 79t62.5 51.5t84.5 18.5q63 0 92 -27.5t29 -67.5q0 -19 -6 -34t-16 -28.5t-23 -25.5t-27 -24l-27 -23q-12 -10 -24 -21.5t-22.5 -24.5t-17 -28t-6.5 -32q0 -26 14.5 -44t38.5 -41l19 -19q13 -13 26.5 -26t23.5 -28t16.5 -32.5t6.5 -39.5
q0 -63 -41.5 -100t-117.5 -37q-42 0 -72 12t-38 18l17 92h13v-9q0 -47 21.5 -72.5t63.5 -25.5t69.5 26t27.5 74q0 35 -18.5 59.5t-43.5 46.5l-21 19q-24 22 -39.5 43t-15.5 54q0 37 21.5 63.5t50.5 52.5l23 21q30 28 50 58.5t20 77.5q0 37 -19.5 56.5t-51.5 19.5
q-37 0 -64 -20t-44 -55q-15 -29 -24 -66t-18 -81l-89 -450q-9 -48 -24 -90t-36 -73.5t-50 -49.5t-67 -18q-51 0 -71.5 18.5t-20.5 42.5q0 35 37 35q34 0 34 -29q0 -4 -0.5 -12t-0.5 -12q0 -10 4.5 -21t25.5 -11q24 0 40.5 16.5t28.5 43t20.5 61t15.5 70.5l84 432h-82l4 19
l82 -1l4 18v0z" />
    <glyph glyph-name="agrave" unicode="&#xe0;" horiz-adv-x="500" 
d="M440 426q0 -2 -1 -4t-1 -4q-8 -32 -20.5 -90t-28.5 -139l-4 -20q-6 -30 -12 -61t-6 -46q0 -11 3 -17.5t12 -6.5q16 0 38 17.5t40 36.5l7 -7q-11 -14 -25 -30.5t-30.5 -30.5t-35.5 -23.5t-38 -9.5q-35 0 -35 41q0 11 2 26t5 31l8 41l-4 1q-9 -18 -25 -42.5t-38.5 -46
t-51 -36.5t-62.5 -15q-47 0 -73.5 30.5t-26.5 90.5q0 31 8 67t22.5 71.5t35.5 69t48 59t59 41t69 15.5q35 0 56.5 -13.5t32.5 -36.5l13 41h59zM361 351q0 10 -4 21.5t-12 21t-20 15.5t-29 6q-42 0 -77 -30t-59.5 -75.5t-38.5 -98.5t-14 -98q0 -42 15.5 -65t47.5 -23
q34 0 66.5 29t58 75.5t43 104.5t23.5 117zM404 514l-4 -7l-173 90q-9 5 -16 12t-7 20q0 14 9.5 20.5t19.5 6.5q11 0 17 -5l12 -10z" />
    <glyph glyph-name="aacute" unicode="&#xe1;" horiz-adv-x="500" 
d="M440 426q0 -2 -1 -4t-1 -4q-8 -32 -20.5 -90t-28.5 -139l-4 -20q-6 -30 -12 -61t-6 -46q0 -11 3 -17.5t12 -6.5q16 0 38 17.5t40 36.5l7 -7q-11 -14 -25 -30.5t-30.5 -30.5t-35.5 -23.5t-38 -9.5q-35 0 -35 41q0 11 2 26t5 31l8 41l-4 1q-9 -18 -25 -42.5t-38.5 -46
t-51 -36.5t-62.5 -15q-47 0 -73.5 30.5t-26.5 90.5q0 31 8 67t22.5 71.5t35.5 69t48 59t59 41t69 15.5q35 0 56.5 -13.5t32.5 -36.5l13 41h59zM361 351q0 10 -4 21.5t-12 21t-20 15.5t-29 6q-42 0 -77 -30t-59.5 -75.5t-38.5 -98.5t-14 -98q0 -42 15.5 -65t47.5 -23
q34 0 66.5 29t58 75.5t43 104.5t23.5 117zM399 641l12 10t17 5q10 0 19.5 -6.5t9.5 -20.5q0 -13 -7 -20t-16 -12l-173 -90l-4 7z" />
    <glyph glyph-name="acircumflex" unicode="&#xe2;" horiz-adv-x="500" 
d="M440 426q0 -2 -1 -4t-1 -4q-8 -32 -20.5 -90t-28.5 -139l-4 -20q-6 -30 -12 -61t-6 -46q0 -11 3 -17.5t12 -6.5q16 0 38 17.5t40 36.5l7 -7q-11 -14 -25 -30.5t-30.5 -30.5t-35.5 -23.5t-38 -9.5q-35 0 -35 41q0 11 2 26t5 31l8 41l-4 1q-9 -18 -25 -42.5t-38.5 -46
t-51 -36.5t-62.5 -15q-47 0 -73.5 30.5t-26.5 90.5q0 31 8 67t22.5 71.5t35.5 69t48 59t59 41t69 15.5q35 0 56.5 -13.5t32.5 -36.5l13 41h59zM361 351q0 10 -4 21.5t-12 21t-20 15.5t-29 6q-42 0 -77 -30t-59.5 -75.5t-38.5 -98.5t-14 -98q0 -42 15.5 -65t47.5 -23
q34 0 66.5 29t58 75.5t43 104.5t23.5 117zM218 502l-5 6l120 158h16l61 -158l-7 -5l-71 102z" />
    <glyph glyph-name="atilde" unicode="&#xe3;" horiz-adv-x="500" 
d="M440 426q0 -2 -1 -4t-1 -4q-8 -32 -20.5 -90t-28.5 -139l-4 -20q-6 -30 -12 -61t-6 -46q0 -11 3 -17.5t12 -6.5q16 0 38 17.5t40 36.5l7 -7q-11 -14 -25 -30.5t-30.5 -30.5t-35.5 -23.5t-38 -9.5q-35 0 -35 41q0 11 2 26t5 31l8 41l-4 1q-9 -18 -25 -42.5t-38.5 -46
t-51 -36.5t-62.5 -15q-47 0 -73.5 30.5t-26.5 90.5q0 31 8 67t22.5 71.5t35.5 69t48 59t59 41t69 15.5q35 0 56.5 -13.5t32.5 -36.5l13 41h59zM361 351q0 10 -4 21.5t-12 21t-20 15.5t-29 6q-42 0 -77 -30t-59.5 -75.5t-38.5 -98.5t-14 -98q0 -42 15.5 -65t47.5 -23
q34 0 66.5 29t58 75.5t43 104.5t23.5 117zM282 621q10 0 20 -2t30 -10l28 -12q14 -6 26.5 -11t23.5 -5q18 0 31 7.5t24 27.5l7 -3q-12 -39 -31.5 -52t-45.5 -13q-11 0 -21.5 2.5t-30.5 10.5l-28 12q-14 6 -26.5 10.5t-23.5 4.5q-17 0 -32.5 -12.5t-26.5 -32.5l-7 3
q12 39 33 57t50 18z" />
    <glyph glyph-name="adieresis" unicode="&#xe4;" horiz-adv-x="500" 
d="M440 426q0 -2 -1 -4t-1 -4q-8 -32 -20.5 -90t-28.5 -139l-4 -20q-6 -30 -12 -61t-6 -46q0 -11 3 -17.5t12 -6.5q16 0 38 17.5t40 36.5l7 -7q-11 -14 -25 -30.5t-30.5 -30.5t-35.5 -23.5t-38 -9.5q-35 0 -35 41q0 11 2 26t5 31l8 41l-4 1q-9 -18 -25 -42.5t-38.5 -46
t-51 -36.5t-62.5 -15q-47 0 -73.5 30.5t-26.5 90.5q0 31 8 67t22.5 71.5t35.5 69t48 59t59 41t69 15.5q35 0 56.5 -13.5t32.5 -36.5l13 41h59zM361 351q0 10 -4 21.5t-12 21t-20 15.5t-29 6q-42 0 -77 -30t-59.5 -75.5t-38.5 -98.5t-14 -98q0 -42 15.5 -65t47.5 -23
q34 0 66.5 29t58 75.5t43 104.5t23.5 117zM224 633q0 18 12.5 30.5t30.5 12.5t30.5 -12.5t12.5 -30.5t-12.5 -30.5t-30.5 -12.5t-30.5 12.5t-12.5 30.5zM384 633q0 18 12.5 30.5t30.5 12.5t30.5 -12.5t12.5 -30.5t-12.5 -30.5t-30.5 -12.5t-30.5 12.5t-12.5 30.5z" />
    <glyph glyph-name="aring" unicode="&#xe5;" horiz-adv-x="500" 
d="M440 426q0 -2 -1 -4t-1 -4q-8 -32 -20.5 -90t-28.5 -139l-4 -20q-6 -30 -12 -61t-6 -46q0 -11 3 -17.5t12 -6.5q16 0 38 17.5t40 36.5l7 -7q-11 -14 -25 -30.5t-30.5 -30.5t-35.5 -23.5t-38 -9.5q-35 0 -35 41q0 11 2 26t5 31l8 41l-4 1q-9 -18 -25 -42.5t-38.5 -46
t-51 -36.5t-62.5 -15q-47 0 -73.5 30.5t-26.5 90.5q0 31 8 67t22.5 71.5t35.5 69t48 59t59 41t69 15.5q35 0 56.5 -13.5t32.5 -36.5l13 41h59zM361 351q0 10 -4 21.5t-12 21t-20 15.5t-29 6q-42 0 -77 -30t-59.5 -75.5t-38.5 -98.5t-14 -98q0 -42 15.5 -65t47.5 -23
q34 0 66.5 29t58 75.5t43 104.5t23.5 117zM423 574q0 -35 -23.5 -57t-58.5 -22q-34 0 -57.5 22t-23.5 57q0 34 23.5 56t57.5 22t58 -22t24 -56zM398 574q0 26 -16 42t-41 16q-23 0 -39.5 -16t-16.5 -42t16.5 -42.5t39.5 -16.5q25 0 41 16.5t16 42.5z" />
    <glyph glyph-name="ae" unicode="&#xe6;" horiz-adv-x="688" 
d="M682 352q0 -39 -20 -61t-51.5 -33.5t-71 -14.5t-78.5 -3h-56q-2 -8 -6 -33t-4 -55q0 -55 24.5 -91.5t77.5 -36.5q23 0 43 8.5t35 20t25 23t15 18.5l9 -7q-11 -18 -26 -35t-35 -30.5t-44.5 -22t-54.5 -8.5q-69 0 -102 40.5t-34 114.5q-9 -18 -25 -44.5t-40 -51t-54.5 -42
t-67.5 -17.5q-47 0 -73.5 30.5t-26.5 90.5q0 31 8 67t22.5 71.5t35.5 69t48 59t59 41t69 15.5q35 0 56.5 -13.5t32.5 -36.5l13 41h59q0 -2 -1 -4t-1 -4l-8 -32q29 23 63 36t73 13q54 0 83 -20.5t29 -62.5zM365 351q0 10 -4 21.5t-12 21t-20 15.5t-29 6q-42 0 -77 -30
t-59.5 -75.5t-38.5 -98.5t-14 -98q0 -42 15.5 -65t47.5 -23q34 0 66.5 29t58 75.5t43 104.5t23.5 117zM625 361q0 30 -16.5 45t-43.5 15q-24 0 -47.5 -12t-44.5 -33.5t-38 -52.5t-27 -69h31q42 0 76 5.5t58.5 18t38 33t13.5 50.5z" />
    <glyph glyph-name="ccedilla" unicode="&#xe7;" horiz-adv-x="395" 
d="M75 -196q10 -5 22 -7t23 -2q35 0 58 19.5t23 55.5q0 32 -15 45.5t-40 13.5q-14 0 -26 -5.5t-18 -11.5l-6 6l61 74q-55 6 -85.5 44t-30.5 115q0 56 18 107.5t50.5 90.5t77 62.5t97.5 23.5q57 0 82.5 -22t25.5 -53q0 -44 -40 -44q-35 0 -35 26q0 8 2.5 20.5t2.5 22.5
q0 13 -8 24.5t-36 11.5q-42 0 -73.5 -28t-53 -68.5t-32.5 -86t-11 -80.5q0 -64 25 -99t76 -35q24 0 44 8.5t35 20t25 23t15 18.5l9 -7q-12 -18 -27.5 -35.5t-35 -31t-43.5 -21.5t-53 -8h-8l-49 -55h1q3 3 14.5 7.5t28.5 4.5q34 0 56 -20t22 -55q0 -22 -8.5 -39t-23 -28.5
t-33.5 -17.5t-39 -6q-22 0 -37 4t-29 12z" />
    <glyph glyph-name="egrave" unicode="&#xe8;" horiz-adv-x="401" 
d="M395 352q0 -39 -20 -61t-51.5 -33.5t-71 -14.5t-78.5 -3h-56q-2 -8 -6 -33t-4 -55q0 -55 24.5 -91.5t77.5 -36.5q23 0 43 8.5t35 20t25 23t15 18.5l9 -7q-11 -18 -26 -35t-35 -30.5t-44.5 -22t-54.5 -8.5q-70 0 -103 42t-33 118q0 54 18 105.5t50 91t76.5 63.5t97.5 24
q54 0 83 -20.5t29 -62.5zM338 361q0 30 -16.5 45t-43.5 15q-24 0 -47.5 -12t-44.5 -33.5t-38 -52.5t-27 -69h31q42 0 76 5.5t58.5 18t38 33t13.5 50.5zM365 514l-4 -7l-173 90q-9 5 -16 12t-7 20q0 14 9.5 20.5t19.5 6.5q11 0 17 -5l12 -10z" />
    <glyph glyph-name="eacute" unicode="&#xe9;" horiz-adv-x="401" 
d="M395 352q0 -39 -20 -61t-51.5 -33.5t-71 -14.5t-78.5 -3h-56q-2 -8 -6 -33t-4 -55q0 -55 24.5 -91.5t77.5 -36.5q23 0 43 8.5t35 20t25 23t15 18.5l9 -7q-11 -18 -26 -35t-35 -30.5t-44.5 -22t-54.5 -8.5q-70 0 -103 42t-33 118q0 54 18 105.5t50 91t76.5 63.5t97.5 24
q54 0 83 -20.5t29 -62.5zM338 361q0 30 -16.5 45t-43.5 15q-24 0 -47.5 -12t-44.5 -33.5t-38 -52.5t-27 -69h31q42 0 76 5.5t58.5 18t38 33t13.5 50.5zM355 641l12 10t17 5q10 0 19.5 -6.5t9.5 -20.5q0 -13 -7 -20t-16 -12l-173 -90l-4 7z" />
    <glyph glyph-name="ecircumflex" unicode="&#xea;" horiz-adv-x="401" 
d="M395 352q0 -39 -20 -61t-51.5 -33.5t-71 -14.5t-78.5 -3h-56q-2 -8 -6 -33t-4 -55q0 -55 24.5 -91.5t77.5 -36.5q23 0 43 8.5t35 20t25 23t15 18.5l9 -7q-11 -18 -26 -35t-35 -30.5t-44.5 -22t-54.5 -8.5q-70 0 -103 42t-33 118q0 54 18 105.5t50 91t76.5 63.5t97.5 24
q54 0 83 -20.5t29 -62.5zM338 361q0 30 -16.5 45t-43.5 15q-24 0 -47.5 -12t-44.5 -33.5t-38 -52.5t-27 -69h31q42 0 76 5.5t58.5 18t38 33t13.5 50.5zM183 502l-5 6l120 158h16l61 -158l-7 -5l-71 102z" />
    <glyph glyph-name="edieresis" unicode="&#xeb;" horiz-adv-x="401" 
d="M395 352q0 -39 -20 -61t-51.5 -33.5t-71 -14.5t-78.5 -3h-56q-2 -8 -6 -33t-4 -55q0 -55 24.5 -91.5t77.5 -36.5q23 0 43 8.5t35 20t25 23t15 18.5l9 -7q-11 -18 -26 -35t-35 -30.5t-44.5 -22t-54.5 -8.5q-70 0 -103 42t-33 118q0 54 18 105.5t50 91t76.5 63.5t97.5 24
q54 0 83 -20.5t29 -62.5zM338 361q0 30 -16.5 45t-43.5 15q-24 0 -47.5 -12t-44.5 -33.5t-38 -52.5t-27 -69h31q42 0 76 5.5t58.5 18t38 33t13.5 50.5zM200 633q0 18 12.5 30.5t30.5 12.5t30.5 -12.5t12.5 -30.5t-12.5 -30.5t-30.5 -12.5t-30.5 12.5t-12.5 30.5zM360 633
q0 18 12.5 30.5t30.5 12.5t30.5 -12.5t12.5 -30.5t-12.5 -30.5t-30.5 -12.5t-30.5 12.5t-12.5 30.5z" />
    <glyph glyph-name="igrave" unicode="&#xec;" horiz-adv-x="252" 
d="M114 334q2 8 3 15t1 14q0 21 -18 33.5t-60 17.5l2 9q48 1 76 2t43.5 2t22 1h10.5l-8 -37q-7 -32 -15.5 -70.5t-19.5 -95.5l-13 -63q-7 -32 -13 -61.5t-6 -43.5q0 -23 16 -23q7 0 17.5 5t21.5 13t22.5 18.5t21.5 21.5l7 -7q-11 -14 -26 -30.5t-32.5 -30.5t-37.5 -23.5
t-40 -9.5q-19 0 -26.5 10t-7.5 27q0 12 2.5 29t5.5 32zM253 514l-4 -7l-173 90q-9 5 -16 12t-7 20q0 14 9.5 20.5t19.5 6.5q11 0 17 -5l12 -10z" />
    <glyph glyph-name="iacute" unicode="&#xed;" horiz-adv-x="252" 
d="M114 334q2 8 3 15t1 14q0 21 -18 33.5t-60 17.5l2 9q48 1 76 2t43.5 2t22 1h10.5l-8 -37q-7 -32 -15.5 -70.5t-19.5 -95.5l-13 -63q-7 -32 -13 -61.5t-6 -43.5q0 -23 16 -23q7 0 17.5 5t21.5 13t22.5 18.5t21.5 21.5l7 -7q-11 -14 -26 -30.5t-32.5 -30.5t-37.5 -23.5
t-40 -9.5q-19 0 -26.5 10t-7.5 27q0 12 2.5 29t5.5 32zM224 641l12 10t17 5q10 0 19.5 -6.5t9.5 -20.5q0 -13 -7 -20t-16 -12l-173 -90l-4 7z" />
    <glyph glyph-name="icircumflex" unicode="&#xee;" horiz-adv-x="252" 
d="M114 334q2 8 3 15t1 14q0 21 -18 33.5t-60 17.5l2 9q48 1 76 2t43.5 2t22 1h10.5l-8 -37q-7 -32 -15.5 -70.5t-19.5 -95.5l-13 -63q-7 -32 -13 -61.5t-6 -43.5q0 -23 16 -23q7 0 17.5 5t21.5 13t22.5 18.5t21.5 21.5l7 -7q-11 -14 -26 -30.5t-32.5 -30.5t-37.5 -23.5
t-40 -9.5q-19 0 -26.5 10t-7.5 27q0 12 2.5 29t5.5 32zM55 502l-5 6l120 158h16l61 -158l-7 -5l-71 102z" />
    <glyph glyph-name="idieresis" unicode="&#xef;" horiz-adv-x="252" 
d="M114 334q2 8 3 15t1 14q0 21 -18 33.5t-60 17.5l2 9q48 1 76 2t43.5 2t22 1h10.5l-8 -37q-7 -32 -15.5 -70.5t-19.5 -95.5l-13 -63q-7 -32 -13 -61.5t-6 -43.5q0 -23 16 -23q7 0 17.5 5t21.5 13t22.5 18.5t21.5 21.5l7 -7q-11 -14 -26 -30.5t-32.5 -30.5t-37.5 -23.5
t-40 -9.5q-19 0 -26.5 10t-7.5 27q0 12 2.5 29t5.5 32zM60 633q0 18 12.5 30.5t30.5 12.5t30.5 -12.5t12.5 -30.5t-12.5 -30.5t-30.5 -12.5t-30.5 12.5t-12.5 30.5zM220 633q0 18 12.5 30.5t30.5 12.5t30.5 -12.5t12.5 -30.5t-12.5 -30.5t-30.5 -12.5t-30.5 12.5t-12.5 30.5
z" />
    <glyph glyph-name="eth" unicode="&#xf0;" horiz-adv-x="476" 
d="M396 599q24 -35 34 -83t10 -98q0 -31 -4.5 -75t-15.5 -91.5t-30 -94t-47.5 -83.5t-67.5 -60t-91 -23q-32 0 -58 8t-45 26t-29 46.5t-10 69.5q0 55 20 108t52 94t73.5 66t84.5 25q47 0 71.5 -25.5t27.5 -57.5h2q2 21 4.5 44t2.5 52q0 33 -5 66t-19 60l-82 -55l-7 14l81 54
q-17 25 -43 40t-66 15q-23 0 -38 -4t-28 -10l-4 8q14 10 41 18t65 8t65 -13.5t46 -36.5l79 53l6 -14zM182 4q31 0 56.5 17.5t45.5 45.5t35.5 62.5t25.5 68.5t15 63t5 47q0 17 -4 35t-13.5 33t-25.5 24.5t-41 9.5q-45 0 -78 -31.5t-55 -77t-33 -95.5t-11 -87q0 -55 18.5 -85
t59.5 -30z" />
    <glyph glyph-name="ntilde" unicode="&#xf1;" horiz-adv-x="504" 
d="M166 251h5q12 29 31 61t44.5 59t56.5 44.5t66 17.5q34 0 48 -17t14 -47q0 -17 -3.5 -35t-7.5 -35l-33 -143q-6 -29 -12 -56t-6 -42q0 -11 3 -17.5t13 -6.5q6 0 16.5 5t22 13t23 18.5t21.5 21.5l7 -7q-11 -14 -26 -30.5t-32.5 -30.5t-37 -23.5t-38.5 -9.5q-38 0 -38 42
q0 14 3 31.5t7 33.5l51 229q4 19 4 31q0 16 -8 26t-28 10q-36 0 -67.5 -29.5t-57 -73.5t-43 -95t-24.5 -94q-5 -26 -10 -51t-10 -51h-59q5 21 10 47q5 22 10.5 50t11.5 58l36 188q1 5 1.5 10t0.5 9q0 29 -22.5 38.5t-54.5 13.5l2 9q68 2 105 3t47 2zM240 621q10 0 20 -2
t30 -10l28 -12q14 -6 26.5 -11t23.5 -5q18 0 31 7.5t24 27.5l7 -3q-12 -39 -31.5 -52t-45.5 -13q-11 0 -21.5 2.5t-30.5 10.5l-28 12q-14 6 -26.5 10.5t-23.5 4.5q-17 0 -32.5 -12.5t-26.5 -32.5l-7 3q12 39 33 57t50 18z" />
    <glyph glyph-name="ograve" unicode="&#xf2;" horiz-adv-x="461" 
d="M191 -9q-42 0 -69 12t-42.5 32.5t-22 48.5t-6.5 60q0 50 16.5 101.5t47 93.5t74 68.5t96.5 26.5q40 0 66.5 -12t42.5 -33t22 -49t6 -60q0 -48 -15.5 -99t-44.5 -93t-72.5 -69.5t-98.5 -27.5zM116 112q0 -56 19.5 -81t57.5 -25q28 0 51.5 16t41.5 42t31.5 58.5t22.5 66.5
t13 65.5t4 54.5q0 22 -3.5 42t-12 35t-23 23.5t-36.5 8.5q-27 0 -50 -15.5t-41 -41.5t-32.5 -58.5t-23.5 -66.5t-14 -66.5t-5 -57.5zM385 514l-4 -7l-173 90q-9 5 -16 12t-7 20q0 14 9.5 20.5t19.5 6.5q11 0 17 -5l12 -10z" />
    <glyph glyph-name="oacute" unicode="&#xf3;" horiz-adv-x="461" 
d="M191 -9q-42 0 -69 12t-42.5 32.5t-22 48.5t-6.5 60q0 50 16.5 101.5t47 93.5t74 68.5t96.5 26.5q40 0 66.5 -12t42.5 -33t22 -49t6 -60q0 -48 -15.5 -99t-44.5 -93t-72.5 -69.5t-98.5 -27.5zM116 112q0 -56 19.5 -81t57.5 -25q28 0 51.5 16t41.5 42t31.5 58.5t22.5 66.5
t13 65.5t4 54.5q0 22 -3.5 42t-12 35t-23 23.5t-36.5 8.5q-27 0 -50 -15.5t-41 -41.5t-32.5 -58.5t-23.5 -66.5t-14 -66.5t-5 -57.5zM377 641l12 10t17 5q10 0 19.5 -6.5t9.5 -20.5q0 -13 -7 -20t-16 -12l-173 -90l-4 7z" />
    <glyph glyph-name="ocircumflex" unicode="&#xf4;" horiz-adv-x="461" 
d="M191 -9q-42 0 -69 12t-42.5 32.5t-22 48.5t-6.5 60q0 50 16.5 101.5t47 93.5t74 68.5t96.5 26.5q40 0 66.5 -12t42.5 -33t22 -49t6 -60q0 -48 -15.5 -99t-44.5 -93t-72.5 -69.5t-98.5 -27.5zM116 112q0 -56 19.5 -81t57.5 -25q28 0 51.5 16t41.5 42t31.5 58.5t22.5 66.5
t13 65.5t4 54.5q0 22 -3.5 42t-12 35t-23 23.5t-36.5 8.5q-27 0 -50 -15.5t-41 -41.5t-32.5 -58.5t-23.5 -66.5t-14 -66.5t-5 -57.5zM224 502l-5 6l120 158h16l61 -158l-7 -5l-71 102z" />
    <glyph glyph-name="otilde" unicode="&#xf5;" horiz-adv-x="461" 
d="M191 -9q-42 0 -69 12t-42.5 32.5t-22 48.5t-6.5 60q0 50 16.5 101.5t47 93.5t74 68.5t96.5 26.5q40 0 66.5 -12t42.5 -33t22 -49t6 -60q0 -48 -15.5 -99t-44.5 -93t-72.5 -69.5t-98.5 -27.5zM116 112q0 -56 19.5 -81t57.5 -25q28 0 51.5 16t41.5 42t31.5 58.5t22.5 66.5
t13 65.5t4 54.5q0 22 -3.5 42t-12 35t-23 23.5t-36.5 8.5q-27 0 -50 -15.5t-41 -41.5t-32.5 -58.5t-23.5 -66.5t-14 -66.5t-5 -57.5zM273 621q10 0 20 -2t30 -10l28 -12q14 -6 26.5 -11t23.5 -5q18 0 31 7.5t24 27.5l7 -3q-12 -39 -31.5 -52t-45.5 -13q-11 0 -21.5 2.5
t-30.5 10.5l-28 12q-14 6 -26.5 10.5t-23.5 4.5q-17 0 -32.5 -12.5t-26.5 -32.5l-7 3q12 39 33 57t50 18z" />
    <glyph glyph-name="odieresis" unicode="&#xf6;" horiz-adv-x="461" 
d="M191 -9q-42 0 -69 12t-42.5 32.5t-22 48.5t-6.5 60q0 50 16.5 101.5t47 93.5t74 68.5t96.5 26.5q40 0 66.5 -12t42.5 -33t22 -49t6 -60q0 -48 -15.5 -99t-44.5 -93t-72.5 -69.5t-98.5 -27.5zM116 112q0 -56 19.5 -81t57.5 -25q28 0 51.5 16t41.5 42t31.5 58.5t22.5 66.5
t13 65.5t4 54.5q0 22 -3.5 42t-12 35t-23 23.5t-36.5 8.5q-27 0 -50 -15.5t-41 -41.5t-32.5 -58.5t-23.5 -66.5t-14 -66.5t-5 -57.5zM220 633q0 18 12.5 30.5t30.5 12.5t30.5 -12.5t12.5 -30.5t-12.5 -30.5t-30.5 -12.5t-30.5 12.5t-12.5 30.5zM380 633q0 18 12.5 30.5
t30.5 12.5t30.5 -12.5t12.5 -30.5t-12.5 -30.5t-30.5 -12.5t-30.5 12.5t-12.5 30.5z" />
    <glyph glyph-name="divide" unicode="&#xf7;" horiz-adv-x="568" 
d="M55 225h458v-39h-458v39zM232 37q0 21 13.5 34.5t34.5 13.5q22 0 35.5 -13.5t13.5 -34.5q0 -22 -13 -35.5t-36 -13.5t-35.5 13.5t-12.5 35.5zM232 369q0 21 13.5 34.5t34.5 13.5q22 0 35.5 -13.5t13.5 -34.5q0 -22 -13 -35.5t-36 -13.5t-35.5 13.5t-12.5 35.5z" />
    <glyph glyph-name="oslash" unicode="&#xf8;" horiz-adv-x="461" 
d="M191 -9q-20 0 -36 3l-37 -88h-21l39 92q-25 7 -41.5 21t-26 33t-13.5 42.5t-4 49.5q0 50 16.5 101.5t47 93.5t74 68.5t96.5 26.5q19 0 34 -3l41 96h22l-43 -101q48 -15 65.5 -55t17.5 -91q0 -48 -15.5 -99t-44.5 -93t-72.5 -69.5t-98.5 -27.5zM116 112q0 -68 29 -92
l166 393q-13 5 -29 5q-27 0 -50 -15.5t-41 -41.5t-32.5 -58.5t-23.5 -66.5t-14 -66.5t-5 -57.5zM357 309q0 29 -6 53.5t-22 39.5l-166 -391q7 -2 14 -3.5t16 -1.5q28 0 51.5 16t41.5 42t31.5 58.5t22.5 66.5t13 65.5t4 54.5z" />
    <glyph glyph-name="ugrave" unicode="&#xf9;" horiz-adv-x="494" 
d="M138 110q-2 -9 -3.5 -21.5t-1.5 -20.5q0 -16 7 -26.5t28 -10.5q31 0 59.5 28t52.5 70t41.5 91.5t26.5 93.5l23 112h60q-6 -24 -11 -50q-5 -23 -11 -50.5t-11 -56.5q-5 -26 -11 -54t-11 -53q-6 -31 -11.5 -59.5t-5.5 -44.5q0 -11 3 -17.5t11 -6.5q9 0 19.5 5.5t21.5 14
t22 18.5t20 20l7 -7q-11 -14 -25.5 -30.5t-32 -30.5t-35.5 -23.5t-36 -9.5q-36 0 -36 40q0 11 2.5 27.5t6 36t8 40t9.5 38.5h-6q-11 -29 -29.5 -61t-43 -59t-54 -44.5t-62.5 -17.5t-46 14.5t-13 46.5q0 17 3.5 35t7.5 36l45 220q1 5 1.5 9.5t0.5 9.5q0 29 -22.5 38.5
t-54.5 13.5l2 9q48 1 76 2t43.5 2t22 1h10.5q-7 -30 -13 -54.5t-10.5 -44.5t-8.5 -38t-7 -35zM374 514l-4 -7l-173 90q-9 5 -16 12t-7 20q0 14 9.5 20.5t19.5 6.5q11 0 17 -5l12 -10z" />
    <glyph glyph-name="uacute" unicode="&#xfa;" horiz-adv-x="494" 
d="M138 110q-2 -9 -3.5 -21.5t-1.5 -20.5q0 -16 7 -26.5t28 -10.5q31 0 59.5 28t52.5 70t41.5 91.5t26.5 93.5l23 112h60q-6 -24 -11 -50q-5 -23 -11 -50.5t-11 -56.5q-5 -26 -11 -54t-11 -53q-6 -31 -11.5 -59.5t-5.5 -44.5q0 -11 3 -17.5t11 -6.5q9 0 19.5 5.5t21.5 14
t22 18.5t20 20l7 -7q-11 -14 -25.5 -30.5t-32 -30.5t-35.5 -23.5t-36 -9.5q-36 0 -36 40q0 11 2.5 27.5t6 36t8 40t9.5 38.5h-6q-11 -29 -29.5 -61t-43 -59t-54 -44.5t-62.5 -17.5t-46 14.5t-13 46.5q0 17 3.5 35t7.5 36l45 220q1 5 1.5 9.5t0.5 9.5q0 29 -22.5 38.5
t-54.5 13.5l2 9q48 1 76 2t43.5 2t22 1h10.5q-7 -30 -13 -54.5t-10.5 -44.5t-8.5 -38t-7 -35zM358 641l12 10t17 5q10 0 19.5 -6.5t9.5 -20.5q0 -13 -7 -20t-16 -12l-173 -90l-4 7z" />
    <glyph glyph-name="ucircumflex" unicode="&#xfb;" horiz-adv-x="494" 
d="M138 110q-2 -9 -3.5 -21.5t-1.5 -20.5q0 -16 7 -26.5t28 -10.5q31 0 59.5 28t52.5 70t41.5 91.5t26.5 93.5l23 112h60q-6 -24 -11 -50q-5 -23 -11 -50.5t-11 -56.5q-5 -26 -11 -54t-11 -53q-6 -31 -11.5 -59.5t-5.5 -44.5q0 -11 3 -17.5t11 -6.5q9 0 19.5 5.5t21.5 14
t22 18.5t20 20l7 -7q-11 -14 -25.5 -30.5t-32 -30.5t-35.5 -23.5t-36 -9.5q-36 0 -36 40q0 11 2.5 27.5t6 36t8 40t9.5 38.5h-6q-11 -29 -29.5 -61t-43 -59t-54 -44.5t-62.5 -17.5t-46 14.5t-13 46.5q0 17 3.5 35t7.5 36l45 220q1 5 1.5 9.5t0.5 9.5q0 29 -22.5 38.5
t-54.5 13.5l2 9q48 1 76 2t43.5 2t22 1h10.5q-7 -30 -13 -54.5t-10.5 -44.5t-8.5 -38t-7 -35zM193 502l-5 6l120 158h16l61 -158l-7 -5l-71 102z" />
    <glyph glyph-name="udieresis" unicode="&#xfc;" horiz-adv-x="494" 
d="M138 110q-2 -9 -3.5 -21.5t-1.5 -20.5q0 -16 7 -26.5t28 -10.5q31 0 59.5 28t52.5 70t41.5 91.5t26.5 93.5l23 112h60q-6 -24 -11 -50q-5 -23 -11 -50.5t-11 -56.5q-5 -26 -11 -54t-11 -53q-6 -31 -11.5 -59.5t-5.5 -44.5q0 -11 3 -17.5t11 -6.5q9 0 19.5 5.5t21.5 14
t22 18.5t20 20l7 -7q-11 -14 -25.5 -30.5t-32 -30.5t-35.5 -23.5t-36 -9.5q-36 0 -36 40q0 11 2.5 27.5t6 36t8 40t9.5 38.5h-6q-11 -29 -29.5 -61t-43 -59t-54 -44.5t-62.5 -17.5t-46 14.5t-13 46.5q0 17 3.5 35t7.5 36l45 220q1 5 1.5 9.5t0.5 9.5q0 29 -22.5 38.5
t-54.5 13.5l2 9q48 1 76 2t43.5 2t22 1h10.5q-7 -30 -13 -54.5t-10.5 -44.5t-8.5 -38t-7 -35zM193 633q0 18 12.5 30.5t30.5 12.5t30.5 -12.5t12.5 -30.5t-12.5 -30.5t-30.5 -12.5t-30.5 12.5t-12.5 30.5zM353 633q0 18 12.5 30.5t30.5 12.5t30.5 -12.5t12.5 -30.5
t-12.5 -30.5t-30.5 -12.5t-30.5 12.5t-12.5 30.5z" />
    <glyph glyph-name="yacute" unicode="&#xfd;" horiz-adv-x="432" 
d="M179 344q11 -66 27.5 -145.5t32.5 -164.5q10 16 29.5 49t38.5 72.5t33 79.5t14 70q0 17 -6 30t-11 24q-5 10 -8.5 20t-3.5 18q-1 17 10.5 29t30.5 12q44 0 44 -52q1 -29 -10.5 -68t-31 -84t-45.5 -93.5t-56 -96.5q-34 -52 -71 -102.5t-75 -90t-75.5 -63.5t-71.5 -24
q-24 0 -38 10.5t-14 30.5q0 17 11.5 28.5t28.5 11.5q11 0 18.5 -5.5t13.5 -11.5q6 -5 12 -9.5t16 -4.5q15 0 36 13.5t44.5 35t46.5 49t41 56.5l-73 361q-6 29 -12.5 43.5t-22.5 14.5q-17 0 -35.5 -18t-36.5 -41l-10 7q7 13 19.5 31t28.5 34t33.5 27t35.5 11q23 0 37.5 -19.5
t24.5 -74.5zM335 641l12 10t17 5q10 0 19.5 -6.5t9.5 -20.5q0 -13 -7 -20t-16 -12l-173 -90l-4 7z" />
    <glyph glyph-name="thorn" unicode="&#xfe;" horiz-adv-x="480" 
d="M1 -225q12 48 29 130.5t37 178.5l104 518q1 5 1.5 9.5t0.5 8.5q0 15 -6 24t-16.5 15t-24.5 9t-30 5l2 9q48 1 76 2t43.5 2t22 1h10.5l-83 -392l4 -1q9 18 24.5 42t38 45.5t51 36.5t62.5 15q46 0 68 -31t22 -88q0 -31 -7 -67t-20.5 -72t-33.5 -70t-46 -59.5t-57.5 -41
t-67.5 -15.5q-35 0 -57 14.5t-32 35.5l-20 -103q-8 -35 -15.5 -72.5t-17.5 -88.5h-62zM123 73q0 -10 4 -21.5t12 -21t20 -15.5t28 -6q39 0 72 30t57 75.5t37.5 98.5t13.5 98q0 42 -15 65t-42 23q-33 0 -64 -29t-56.5 -75.5t-43 -105t-23.5 -116.5z" />
    <glyph glyph-name="ydieresis" unicode="&#xff;" horiz-adv-x="432" 
d="M179 344q11 -66 27.5 -145.5t32.5 -164.5q10 16 29.5 49t38.5 72.5t33 79.5t14 70q0 17 -6 30t-11 24q-5 10 -8.5 20t-3.5 18q-1 17 10.5 29t30.5 12q44 0 44 -52q1 -29 -10.5 -68t-31 -84t-45.5 -93.5t-56 -96.5q-34 -52 -71 -102.5t-75 -90t-75.5 -63.5t-71.5 -24
q-24 0 -38 10.5t-14 30.5q0 17 11.5 28.5t28.5 11.5q11 0 18.5 -5.5t13.5 -11.5q6 -5 12 -9.5t16 -4.5q15 0 36 13.5t44.5 35t46.5 49t41 56.5l-73 361q-6 29 -12.5 43.5t-22.5 14.5q-17 0 -35.5 -18t-36.5 -41l-10 7q7 13 19.5 31t28.5 34t33.5 27t35.5 11q23 0 37.5 -19.5
t24.5 -74.5zM164 633q0 18 12.5 30.5t30.5 12.5t30.5 -12.5t12.5 -30.5t-12.5 -30.5t-30.5 -12.5t-30.5 12.5t-12.5 30.5zM324 633q0 18 12.5 30.5t30.5 12.5t30.5 -12.5t12.5 -30.5t-12.5 -30.5t-30.5 -12.5t-30.5 12.5t-12.5 30.5z" />
    <glyph glyph-name="Amacron" unicode="&#x100;" horiz-adv-x="605" 
d="M-42 8q21 3 34.5 8t24 14.5t19.5 23.5t21 34l218 389q29 49 52.5 93t50.5 92q5 0 10 1q10 2 20 5q4 -29 14 -85t28 -157l55 -319q5 -27 9 -44t11 -28t19.5 -17t34.5 -10l-2 -8q-20 0 -50 0.5t-53 0.5h-28t-32.5 -0.5t-31.5 -0.5h-25l2 8q40 5 59.5 13t19.5 29q0 6 -3 27
l-31 187h-222l-81 -155q-11 -19 -22 -39t-11 -31t10 -16.5t24 -8.5q5 -2 10.5 -2.5t10.5 -1.5t11 -2l-1 -8q-19 0 -46.5 0.5t-47.5 0.5q-23 0 -44 -0.5t-38 -0.5zM352 567q-12 -23 -31 -57t-36 -65l-90 -157h205l-27 155q-4 20 -7.5 42t-6.5 40zM300 796l9 32h237l-9 -32
h-237z" />
    <glyph glyph-name="amacron" unicode="&#x101;" horiz-adv-x="500" 
d="M440 426q0 -2 -1 -4t-1 -4q-8 -32 -20.5 -90t-28.5 -139l-4 -20q-6 -30 -12 -61t-6 -46q0 -11 3 -17.5t12 -6.5q16 0 38 17.5t40 36.5l7 -7q-11 -14 -25 -30.5t-30.5 -30.5t-35.5 -23.5t-38 -9.5q-35 0 -35 41q0 11 2 26t5 31l8 41l-4 1q-9 -18 -25 -42.5t-38.5 -46
t-51 -36.5t-62.5 -15q-47 0 -73.5 30.5t-26.5 90.5q0 31 8 67t22.5 71.5t35.5 69t48 59t59 41t69 15.5q35 0 56.5 -13.5t32.5 -36.5l13 41h59zM361 351q0 10 -4 21.5t-12 21t-20 15.5t-29 6q-42 0 -77 -30t-59.5 -75.5t-38.5 -98.5t-14 -98q0 -42 15.5 -65t47.5 -23
q34 0 66.5 29t58 75.5t43 104.5t23.5 117zM218 566l9 32h237l-9 -32h-237z" />
    <glyph glyph-name="Abreve" unicode="&#x102;" horiz-adv-x="605" 
d="M-42 8q21 3 34.5 8t24 14.5t19.5 23.5t21 34l218 389q29 49 52.5 93t50.5 92q5 0 10 1q10 2 20 5q4 -29 14 -85t28 -157l55 -319q5 -27 9 -44t11 -28t19.5 -17t34.5 -10l-2 -8q-20 0 -50 0.5t-53 0.5h-28t-32.5 -0.5t-31.5 -0.5h-25l2 8q40 5 59.5 13t19.5 29q0 6 -3 27
l-31 187h-222l-81 -155q-11 -19 -22 -39t-11 -31t10 -16.5t24 -8.5q5 -2 10.5 -2.5t10.5 -1.5t11 -2l-1 -8q-19 0 -46.5 0.5t-47.5 0.5q-23 0 -44 -0.5t-38 -0.5zM352 567q-12 -23 -31 -57t-36 -65l-90 -157h205l-27 155q-4 20 -7.5 42t-6.5 40zM409 788q48 0 78 23.5
t50 54.5l9 -4q-5 -11 -14.5 -29.5t-27 -36t-42.5 -30t-61 -12.5q-35 0 -55.5 13t-31.5 31t-14.5 36.5t-3.5 29.5l10 2q6 -31 30.5 -54.5t72.5 -23.5z" />
    <glyph glyph-name="abreve" unicode="&#x103;" horiz-adv-x="500" 
d="M440 426q0 -2 -1 -4t-1 -4q-8 -32 -20.5 -90t-28.5 -139l-4 -20q-6 -30 -12 -61t-6 -46q0 -11 3 -17.5t12 -6.5q16 0 38 17.5t40 36.5l7 -7q-11 -14 -25 -30.5t-30.5 -30.5t-35.5 -23.5t-38 -9.5q-35 0 -35 41q0 11 2 26t5 31l8 41l-4 1q-9 -18 -25 -42.5t-38.5 -46
t-51 -36.5t-62.5 -15q-47 0 -73.5 30.5t-26.5 90.5q0 31 8 67t22.5 71.5t35.5 69t48 59t59 41t69 15.5q35 0 56.5 -13.5t32.5 -36.5l13 41h59zM361 351q0 10 -4 21.5t-12 21t-20 15.5t-29 6q-42 0 -77 -30t-59.5 -75.5t-38.5 -98.5t-14 -98q0 -42 15.5 -65t47.5 -23
q34 0 66.5 29t58 75.5t43 104.5t23.5 117zM328 558q48 0 78 23.5t50 54.5l9 -4q-5 -11 -14.5 -29.5t-27 -36t-42.5 -30t-61 -12.5q-35 0 -55.5 13t-31.5 31t-14.5 36.5t-3.5 29.5l10 2q6 -31 30.5 -54.5t72.5 -23.5z" />
    <glyph glyph-name="Aogonek" unicode="&#x104;" horiz-adv-x="605" 
d="M528 -205q-10 -5 -24 -8t-31 -3t-33.5 3t-30.5 10.5t-22.5 21.5t-8.5 37t12.5 45t30.5 41t38 34.5t34 24.5h-19h-28t-32.5 -0.5t-31.5 -0.5h-25l2 8q40 5 59.5 13t19.5 29q0 6 -3 27l-31 187h-222l-81 -155q-11 -19 -22 -39t-11 -31t10 -16.5t24 -8.5q5 -2 10.5 -2.5
t10.5 -1.5t11 -2l-1 -8q-19 0 -46.5 0.5t-47.5 0.5q-23 0 -44 -0.5t-38 -0.5l1 8q21 3 34.5 8t24 14.5t19.5 23.5t21 34l218 389q29 49 52.5 93t50.5 92q5 0 10 1q10 2 20 5q4 -29 14 -85t28 -157l55 -319q5 -27 9 -44t11 -28t19.5 -17t34.5 -10l-2 -8h-32t-37 1
q-12 -10 -26.5 -24.5t-27.5 -32.5t-21.5 -39t-8.5 -45q0 -32 17 -47t47 -15q20 0 38 6zM352 567q-12 -23 -31 -57t-36 -65l-90 -157h205l-27 155q-4 20 -7.5 42t-6.5 40z" />
    <glyph glyph-name="aogonek" unicode="&#x105;" horiz-adv-x="500" 
d="M398 -205q-10 -5 -24 -8t-31 -3t-33.5 3t-30.5 10.5t-22.5 21.5t-8.5 37q0 21 10.5 41t25.5 37.5t33 32t33 25.5q-3 0 -6 -0.5t-6 -0.5q-35 0 -35 41q0 11 2 26t5 31l8 41l-4 1q-9 -18 -25 -42.5t-38.5 -46t-51 -36.5t-62.5 -15q-47 0 -73.5 30.5t-26.5 90.5q0 31 8 67
t22.5 71.5t35.5 69t48 59t59 41t69 15.5q35 0 56.5 -13.5t32.5 -36.5l13 41h59q0 -2 -1 -4t-1 -4q-8 -32 -20.5 -90t-28.5 -139l-4 -20q-6 -30 -12 -61t-6 -46q0 -11 3 -17.5t12 -6.5q16 0 38 17.5t40 36.5l7 -7q-16 -21 -39 -45.5t-51 -38.5q-12 -10 -26.5 -24.5t-27 -32.5
t-21 -39.5t-8.5 -44.5q0 -32 17 -47t47 -15q20 0 38 6zM361 351q0 10 -4 21.5t-12 21t-20 15.5t-29 6q-42 0 -77 -30t-59.5 -75.5t-38.5 -98.5t-14 -98q0 -42 15.5 -65t47.5 -23q34 0 66.5 29t58 75.5t43 104.5t23.5 117z" />
    <glyph glyph-name="Cacute" unicode="&#x106;" horiz-adv-x="567" 
d="M334 19q28 0 51.5 7.5t43 19t34.5 26t26 28.5l11 -8q-7 -9 -21 -26.5t-37.5 -34.5t-58 -29.5t-81.5 -12.5q-51 0 -93.5 15.5t-73.5 48t-48.5 82.5t-17.5 119q0 49 9.5 99t28.5 96.5t47.5 87t66.5 70.5t85.5 47.5t105.5 17.5q59 0 94.5 -11.5t62.5 -22.5q3 0 7 2q5 0 9 -4
l-27 -173h-13q1 8 1 18.5v18.5q0 31 -7 58.5t-22.5 48.5t-41.5 33t-64 12q-43 0 -79 -18t-64.5 -48t-50.5 -69.5t-36.5 -82t-22 -85t-7.5 -79.5q0 -121 50.5 -186t132.5 -65zM491 871l12 10t17 5q10 0 19.5 -6.5t9.5 -20.5q0 -13 -7 -20t-16 -12l-173 -90l-4 7z" />
    <glyph glyph-name="cacute" unicode="&#x107;" horiz-adv-x="395" 
d="M278 421q-42 0 -73.5 -28t-53 -68.5t-32.5 -86t-11 -80.5q0 -64 25 -99t76 -35q24 0 44 8.5t35 20t25 23t15 18.5l9 -7q-12 -18 -27.5 -35.5t-35 -31t-43.5 -21.5t-53 -8q-64 0 -100.5 38t-36.5 122q0 56 18 107.5t50.5 90.5t77 62.5t97.5 23.5q57 0 82.5 -22t25.5 -53
q0 -44 -40 -44q-35 0 -35 26q0 8 2.5 20.5t2.5 22.5q0 13 -8 24.5t-36 11.5zM342 641l12 10t17 5q10 0 19.5 -6.5t9.5 -20.5q0 -13 -7 -20t-16 -12l-173 -90l-4 7z" />
    <glyph glyph-name="Ccircumflex" unicode="&#x108;" horiz-adv-x="567" 
d="M334 19q28 0 51.5 7.5t43 19t34.5 26t26 28.5l11 -8q-7 -9 -21 -26.5t-37.5 -34.5t-58 -29.5t-81.5 -12.5q-51 0 -93.5 15.5t-73.5 48t-48.5 82.5t-17.5 119q0 49 9.5 99t28.5 96.5t47.5 87t66.5 70.5t85.5 47.5t105.5 17.5q59 0 94.5 -11.5t62.5 -22.5q3 0 7 2q5 0 9 -4
l-27 -173h-13q1 8 1 18.5v18.5q0 31 -7 58.5t-22.5 48.5t-41.5 33t-64 12q-43 0 -79 -18t-64.5 -48t-50.5 -69.5t-36.5 -82t-22 -85t-7.5 -79.5q0 -121 50.5 -186t132.5 -65zM337 732l-5 6l120 158h16l61 -158l-7 -5l-71 102z" />
    <glyph glyph-name="ccircumflex" unicode="&#x109;" horiz-adv-x="395" 
d="M278 421q-42 0 -73.5 -28t-53 -68.5t-32.5 -86t-11 -80.5q0 -64 25 -99t76 -35q24 0 44 8.5t35 20t25 23t15 18.5l9 -7q-12 -18 -27.5 -35.5t-35 -31t-43.5 -21.5t-53 -8q-64 0 -100.5 38t-36.5 122q0 56 18 107.5t50.5 90.5t77 62.5t97.5 23.5q57 0 82.5 -22t25.5 -53
q0 -44 -40 -44q-35 0 -35 26q0 8 2.5 20.5t2.5 22.5q0 13 -8 24.5t-36 11.5zM209 502l-5 6l120 158h16l61 -158l-7 -5l-71 102z" />
    <glyph glyph-name="Cdotaccent" unicode="&#x10a;" horiz-adv-x="567" 
d="M334 19q28 0 51.5 7.5t43 19t34.5 26t26 28.5l11 -8q-7 -9 -21 -26.5t-37.5 -34.5t-58 -29.5t-81.5 -12.5q-51 0 -93.5 15.5t-73.5 48t-48.5 82.5t-17.5 119q0 49 9.5 99t28.5 96.5t47.5 87t66.5 70.5t85.5 47.5t105.5 17.5q59 0 94.5 -11.5t62.5 -22.5q3 0 7 2q5 0 9 -4
l-27 -173h-13q1 8 1 18.5v18.5q0 31 -7 58.5t-22.5 48.5t-41.5 33t-64 12q-43 0 -79 -18t-64.5 -48t-50.5 -69.5t-36.5 -82t-22 -85t-7.5 -79.5q0 -121 50.5 -186t132.5 -65zM421 863q0 18 12.5 30.5t30.5 12.5t30.5 -12.5t12.5 -30.5t-12.5 -30.5t-30.5 -12.5t-30.5 12.5
t-12.5 30.5z" />
    <glyph glyph-name="cdotaccent" unicode="&#x10b;" horiz-adv-x="395" 
d="M278 421q-42 0 -73.5 -28t-53 -68.5t-32.5 -86t-11 -80.5q0 -64 25 -99t76 -35q24 0 44 8.5t35 20t25 23t15 18.5l9 -7q-12 -18 -27.5 -35.5t-35 -31t-43.5 -21.5t-53 -8q-64 0 -100.5 38t-36.5 122q0 56 18 107.5t50.5 90.5t77 62.5t97.5 23.5q57 0 82.5 -22t25.5 -53
q0 -44 -40 -44q-35 0 -35 26q0 8 2.5 20.5t2.5 22.5q0 13 -8 24.5t-36 11.5zM291 633q0 18 12.5 30.5t30.5 12.5t30.5 -12.5t12.5 -30.5t-12.5 -30.5t-30.5 -12.5t-30.5 12.5t-12.5 30.5z" />
    <glyph glyph-name="Ccaron" unicode="&#x10c;" horiz-adv-x="567" 
d="M334 19q28 0 51.5 7.5t43 19t34.5 26t26 28.5l11 -8q-7 -9 -21 -26.5t-37.5 -34.5t-58 -29.5t-81.5 -12.5q-51 0 -93.5 15.5t-73.5 48t-48.5 82.5t-17.5 119q0 49 9.5 99t28.5 96.5t47.5 87t66.5 70.5t85.5 47.5t105.5 17.5q59 0 94.5 -11.5t62.5 -22.5q3 0 7 2q5 0 9 -4
l-27 -173h-13q1 8 1 18.5v18.5q0 31 -7 58.5t-22.5 48.5t-41.5 33t-64 12q-43 0 -79 -18t-64.5 -48t-50.5 -69.5t-36.5 -82t-22 -85t-7.5 -79.5q0 -121 50.5 -186t132.5 -65zM555 894l5 -6l-120 -158h-16l-61 158l7 5l71 -102z" />
    <glyph glyph-name="ccaron" unicode="&#x10d;" horiz-adv-x="395" 
d="M278 421q-42 0 -73.5 -28t-53 -68.5t-32.5 -86t-11 -80.5q0 -64 25 -99t76 -35q24 0 44 8.5t35 20t25 23t15 18.5l9 -7q-12 -18 -27.5 -35.5t-35 -31t-43.5 -21.5t-53 -8q-64 0 -100.5 38t-36.5 122q0 56 18 107.5t50.5 90.5t77 62.5t97.5 23.5q57 0 82.5 -22t25.5 -53
q0 -44 -40 -44q-35 0 -35 26q0 8 2.5 20.5t2.5 22.5q0 13 -8 24.5t-36 11.5zM418 664l5 -6l-120 -158h-16l-61 158l7 5l71 -102z" />
    <glyph glyph-name="Dcaron" unicode="&#x10e;" horiz-adv-x="664" 
d="M104 1q-30 0 -56 -0.5t-52 -0.5l1 9q20 2 35.5 5.5t27.5 12.5t20 25t14 44l91 465q2 12 3 20t1 15q0 32 -19.5 41t-51.5 12l1 9q19 0 48.5 -1.5t61.5 -1.5q29 0 48.5 0.5t38.5 0.5q52 0 103 -7t94 -27q53 -25 86 -75.5t33 -136.5q0 -85 -24.5 -162t-77.5 -134
q-50 -54 -125.5 -84.5t-180.5 -30.5q-35 0 -62 1t-58 1zM241 18q84 0 143 35.5t96.5 93.5t55 132t17.5 151q0 62 -18.5 102t-49.5 63t-72 32t-87 9q-14 0 -24.5 -0.5t-17.5 -1.5q-8 -1 -13 -2l-102 -529q-3 -15 -5 -28t-2 -21q0 -21 18 -28.5t61 -7.5zM507 894l5 -6
l-120 -158h-16l-61 158l7 5l71 -102z" />
    <glyph glyph-name="dcaron" unicode="&#x10f;" horiz-adv-x="646" 
d="M413 600q3 15 3 23q0 28 -23 37.5t-55 13.5l2 9q49 2 77.5 3t44.5 1.5t22 0.5h10q-7 -30 -14 -63q-6 -29 -14 -64t-16 -73q-9 -43 -16.5 -80t-15 -74.5t-16 -77t-17.5 -87.5q-6 -30 -12 -61t-6 -46q0 -11 3 -17.5t12 -6.5q16 0 38 17.5t40 36.5l7 -7q-11 -14 -25 -30.5
t-30.5 -30.5t-35.5 -23.5t-38 -9.5q-35 0 -35 41q0 11 2 26t5 31l8 41l-4 1q-9 -18 -25 -42.5t-38.5 -46t-51 -36.5t-62.5 -15q-47 0 -73.5 30.5t-26.5 90.5q0 31 8 67t22.5 71.5t35.5 69t48 59t59 41t69 15.5q36 0 57 -13.5t32 -36.5l14 62zM361 351q0 10 -4 21.5t-12.5 21
t-20.5 15.5t-28 6q-42 0 -77 -30t-59.5 -75.5t-38.5 -98.5t-14 -98q0 -42 15.5 -65t47.5 -23q34 0 66.5 29t58 75.5t43 104.5t23.5 117zM676 629q0 -24 -10 -48.5t-27 -45.5t-38.5 -38t-44.5 -27l-4 7q16 10 32.5 24.5t29.5 32t21 35.5t8 35v4q-2 -2 -9 -4.5t-19 -2.5
q-20 0 -33.5 12t-13.5 35q0 22 14 35t36 13q29 0 43.5 -19.5t14.5 -47.5z" />
    <glyph glyph-name="Dcroat" unicode="&#x110;" horiz-adv-x="664" 
d="M104 1q-30 0 -56 -0.5t-52 -0.5l1 9q20 2 35.5 5.5t27.5 12.5t20 25t14 44l47 241h-87l3 15h87l41 209q2 12 3 20t1 15q0 32 -19.5 41t-51.5 12l1 9q19 0 48.5 -1.5t61.5 -1.5q29 0 48.5 0.5t38.5 0.5q52 0 103 -7t94 -27q53 -25 86 -75.5t33 -136.5q0 -85 -24.5 -162
t-77.5 -134q-50 -54 -125.5 -84.5t-180.5 -30.5q-35 0 -62 1t-58 1zM241 18q84 0 143 35.5t96.5 93.5t55 132t17.5 151q0 62 -18.5 102t-49.5 63t-72 32t-87 9q-14 0 -24.5 -0.5t-17.5 -1.5q-8 -1 -13 -2l-54 -280h104l-3 -15h-104l-45 -234q-3 -15 -5 -28t-2 -21
q0 -21 18 -28.5t61 -7.5z" />
    <glyph glyph-name="dcroat" unicode="&#x111;" horiz-adv-x="506" 
d="M398 528h-73l4 15h72l12 57q3 15 3 23q0 28 -23 37.5t-55 13.5l2 9q49 2 77.5 3t44.5 1.5t22 0.5h10q-5 -20 -10 -43q-5 -20 -11 -46.5t-12 -55.5h80l-4 -15h-79l-8 -40q-9 -43 -16.5 -80t-15 -74.5t-16 -77t-17.5 -87.5q-6 -30 -12 -61t-6 -46q0 -11 3 -17.5t12 -6.5
q16 0 38 17.5t40 36.5l7 -7q-11 -14 -25 -30.5t-30.5 -30.5t-35.5 -23.5t-38 -9.5q-35 0 -35 41q0 11 2 26t5 31l8 41l-4 1q-9 -18 -25 -42.5t-38.5 -46t-51 -36.5t-62.5 -15q-47 0 -73.5 30.5t-26.5 90.5q0 31 8 67t22.5 71.5t35.5 69t48 59t59 41t69 15.5q36 0 57 -13.5
t32 -36.5l14 62zM361 351q0 10 -4 21.5t-12.5 21t-20.5 15.5t-28 6q-42 0 -77 -30t-59.5 -75.5t-38.5 -98.5t-14 -98q0 -42 15.5 -65t47.5 -23q34 0 66.5 29t58 75.5t43 104.5t23.5 117z" />
    <glyph glyph-name="Emacron" unicode="&#x112;" horiz-adv-x="554" 
d="M117 1q-30 0 -64 -0.5t-60 -0.5l1 9q20 2 35.5 5.5t27.5 12.5t20 25t14 44l91 465q4 20 4 35q0 32 -19.5 41t-51.5 12l1 9q9 0 24 -0.5t32 -0.5t35.5 -0.5t34.5 -0.5h201q40 0 68.5 1.5t49.5 3.5l1 -1l-15 -157h-11q0 51 -10.5 78t-34.5 40q-20 11 -47.5 14t-71.5 3h-104
l-56 -289h23.5t33 0.5t34 2t26.5 3.5q15 4 26 11t20 18.5t16.5 29t15.5 42.5h12q-16 -58 -26.5 -114.5t-19.5 -117.5h-12q1 8 1 15v14q0 34 -8 50t-31 22q-9 2 -25 3.5t-33.5 2t-32.5 1t-23 0.5l-44 -236q-2 -14 -3.5 -24t-1.5 -17q0 -11 4 -18.5t14.5 -12t28.5 -6t46 -1.5
h12q53 0 87.5 7.5t58.5 24.5t41.5 45t36.5 69h10l-36 -165q-38 3 -115 3h-231zM269 796l9 32h237l-9 -32h-237z" />
    <glyph glyph-name="emacron" unicode="&#x113;" horiz-adv-x="401" 
d="M395 352q0 -39 -20 -61t-51.5 -33.5t-71 -14.5t-78.5 -3h-56q-2 -8 -6 -33t-4 -55q0 -55 24.5 -91.5t77.5 -36.5q23 0 43 8.5t35 20t25 23t15 18.5l9 -7q-11 -18 -26 -35t-35 -30.5t-44.5 -22t-54.5 -8.5q-70 0 -103 42t-33 118q0 54 18 105.5t50 91t76.5 63.5t97.5 24
q54 0 83 -20.5t29 -62.5zM338 361q0 30 -16.5 45t-43.5 15q-24 0 -47.5 -12t-44.5 -33.5t-38 -52.5t-27 -69h31q42 0 76 5.5t58.5 18t38 33t13.5 50.5zM203 566l9 32h237l-9 -32h-237z" />
    <glyph glyph-name="Ebreve" unicode="&#x114;" horiz-adv-x="554" 
d="M117 1q-30 0 -64 -0.5t-60 -0.5l1 9q20 2 35.5 5.5t27.5 12.5t20 25t14 44l91 465q4 20 4 35q0 32 -19.5 41t-51.5 12l1 9q9 0 24 -0.5t32 -0.5t35.5 -0.5t34.5 -0.5h201q40 0 68.5 1.5t49.5 3.5l1 -1l-15 -157h-11q0 51 -10.5 78t-34.5 40q-20 11 -47.5 14t-71.5 3h-104
l-56 -289h23.5t33 0.5t34 2t26.5 3.5q15 4 26 11t20 18.5t16.5 29t15.5 42.5h12q-16 -58 -26.5 -114.5t-19.5 -117.5h-12q1 8 1 15v14q0 34 -8 50t-31 22q-9 2 -25 3.5t-33.5 2t-32.5 1t-23 0.5l-44 -236q-2 -14 -3.5 -24t-1.5 -17q0 -11 4 -18.5t14.5 -12t28.5 -6t46 -1.5
h12q53 0 87.5 7.5t58.5 24.5t41.5 45t36.5 69h10l-36 -165q-38 3 -115 3h-231zM380 788q48 0 78 23.5t50 54.5l9 -4q-5 -11 -14.5 -29.5t-27 -36t-42.5 -30t-61 -12.5q-35 0 -55.5 13t-31.5 31t-14.5 36.5t-3.5 29.5l10 2q6 -31 30.5 -54.5t72.5 -23.5z" />
    <glyph glyph-name="ebreve" unicode="&#x115;" horiz-adv-x="401" 
d="M395 352q0 -39 -20 -61t-51.5 -33.5t-71 -14.5t-78.5 -3h-56q-2 -8 -6 -33t-4 -55q0 -55 24.5 -91.5t77.5 -36.5q23 0 43 8.5t35 20t25 23t15 18.5l9 -7q-11 -18 -26 -35t-35 -30.5t-44.5 -22t-54.5 -8.5q-70 0 -103 42t-33 118q0 54 18 105.5t50 91t76.5 63.5t97.5 24
q54 0 83 -20.5t29 -62.5zM338 361q0 30 -16.5 45t-43.5 15q-24 0 -47.5 -12t-44.5 -33.5t-38 -52.5t-27 -69h31q42 0 76 5.5t58.5 18t38 33t13.5 50.5zM301 558q48 0 78 23.5t50 54.5l9 -4q-5 -11 -14.5 -29.5t-27 -36t-42.5 -30t-61 -12.5q-35 0 -55.5 13t-31.5 31
t-14.5 36.5t-3.5 29.5l10 2q6 -31 30.5 -54.5t72.5 -23.5z" />
    <glyph glyph-name="Edotaccent" unicode="&#x116;" horiz-adv-x="554" 
d="M117 1q-30 0 -64 -0.5t-60 -0.5l1 9q20 2 35.5 5.5t27.5 12.5t20 25t14 44l91 465q4 20 4 35q0 32 -19.5 41t-51.5 12l1 9q9 0 24 -0.5t32 -0.5t35.5 -0.5t34.5 -0.5h201q40 0 68.5 1.5t49.5 3.5l1 -1l-15 -157h-11q0 51 -10.5 78t-34.5 40q-20 11 -47.5 14t-71.5 3h-104
l-56 -289h23.5t33 0.5t34 2t26.5 3.5q15 4 26 11t20 18.5t16.5 29t15.5 42.5h12q-16 -58 -26.5 -114.5t-19.5 -117.5h-12q1 8 1 15v14q0 34 -8 50t-31 22q-9 2 -25 3.5t-33.5 2t-32.5 1t-23 0.5l-44 -236q-2 -14 -3.5 -24t-1.5 -17q0 -11 4 -18.5t14.5 -12t28.5 -6t46 -1.5
h12q53 0 87.5 7.5t58.5 24.5t41.5 45t36.5 69h10l-36 -165q-38 3 -115 3h-231zM354 863q0 18 12.5 30.5t30.5 12.5t30.5 -12.5t12.5 -30.5t-12.5 -30.5t-30.5 -12.5t-30.5 12.5t-12.5 30.5z" />
    <glyph glyph-name="edotaccent" unicode="&#x117;" horiz-adv-x="401" 
d="M395 352q0 -39 -20 -61t-51.5 -33.5t-71 -14.5t-78.5 -3h-56q-2 -8 -6 -33t-4 -55q0 -55 24.5 -91.5t77.5 -36.5q23 0 43 8.5t35 20t25 23t15 18.5l9 -7q-11 -18 -26 -35t-35 -30.5t-44.5 -22t-54.5 -8.5q-70 0 -103 42t-33 118q0 54 18 105.5t50 91t76.5 63.5t97.5 24
q54 0 83 -20.5t29 -62.5zM338 361q0 30 -16.5 45t-43.5 15q-24 0 -47.5 -12t-44.5 -33.5t-38 -52.5t-27 -69h31q42 0 76 5.5t58.5 18t38 33t13.5 50.5zM285 633q0 18 12.5 30.5t30.5 12.5t30.5 -12.5t12.5 -30.5t-12.5 -30.5t-30.5 -12.5t-30.5 12.5t-12.5 30.5z" />
    <glyph glyph-name="Eogonek" unicode="&#x118;" horiz-adv-x="554" 
d="M447 -205q-10 -5 -24 -8t-31 -3t-33.5 3t-30.5 10.5t-22.5 21.5t-8.5 37t12.5 45t30.5 41t37.5 34t34.5 24q-14 1 -30 1h-34h-231q-30 0 -64 -0.5t-60 -0.5l1 9q20 2 35.5 5.5t27.5 12.5t20 25t14 44l91 465q4 20 4 35q0 32 -19.5 41t-51.5 12l1 9q9 0 24 -0.5t32 -0.5
t35.5 -0.5t34.5 -0.5h201q40 0 68.5 1.5t49.5 3.5l1 -1l-15 -157h-11q0 51 -10.5 78t-34.5 40q-20 11 -47.5 14t-71.5 3h-104l-56 -289h23.5t33 0.5t34 2t26.5 3.5q15 4 26 11t20 18.5t16.5 29t15.5 42.5h12q-16 -58 -26.5 -114.5t-19.5 -117.5h-12q1 8 1 15v14q0 34 -8 50
t-31 22q-9 2 -25 3.5t-33.5 2t-32.5 1t-23 0.5l-44 -236q-2 -14 -3.5 -24t-1.5 -17q0 -11 4 -18.5t14.5 -12t28.5 -6t46 -1.5h12q53 0 87.5 7.5t58.5 24.5t41.5 45t36.5 69h10l-36 -165q-8 1 -17.5 1.5t-20.5 0.5q-12 -11 -26.5 -25t-26.5 -32t-20.5 -39t-8.5 -44
q0 -32 17 -47t47 -15q20 0 38 6z" />
    <glyph glyph-name="eogonek" unicode="&#x119;" horiz-adv-x="401" 
d="M250 -205q-10 -5 -24 -8t-31 -3t-33.5 3t-30.5 10.5t-22.5 21.5t-8.5 37q0 21 10.5 41t26 38t33.5 32.5t33 25.5q-6 -1 -12.5 -1.5t-13.5 -0.5q-70 0 -103 42t-33 118q0 54 18 105.5t50 91t76.5 63.5t97.5 24q54 0 83 -20.5t29 -62.5q0 -39 -20 -61t-51.5 -33.5
t-71 -14.5t-78.5 -3h-56q-2 -8 -6 -33t-4 -55q0 -55 24.5 -91.5t77.5 -36.5q23 0 43 8.5t35 20t25 23t15 18.5l9 -7q-17 -28 -44.5 -53t-66.5 -36q-12 -11 -26 -25t-26 -32t-20 -38.5t-8 -42.5q0 -32 17 -47t47 -15q20 0 38 6zM338 361q0 30 -16.5 45t-43.5 15
q-24 0 -47.5 -12t-44.5 -33.5t-38 -52.5t-27 -69h31q42 0 76 5.5t58.5 18t38 33t13.5 50.5z" />
    <glyph glyph-name="Ecaron" unicode="&#x11a;" horiz-adv-x="554" 
d="M117 1q-30 0 -64 -0.5t-60 -0.5l1 9q20 2 35.5 5.5t27.5 12.5t20 25t14 44l91 465q4 20 4 35q0 32 -19.5 41t-51.5 12l1 9q9 0 24 -0.5t32 -0.5t35.5 -0.5t34.5 -0.5h201q40 0 68.5 1.5t49.5 3.5l1 -1l-15 -157h-11q0 51 -10.5 78t-34.5 40q-20 11 -47.5 14t-71.5 3h-104
l-56 -289h23.5t33 0.5t34 2t26.5 3.5q15 4 26 11t20 18.5t16.5 29t15.5 42.5h12q-16 -58 -26.5 -114.5t-19.5 -117.5h-12q1 8 1 15v14q0 34 -8 50t-31 22q-9 2 -25 3.5t-33.5 2t-32.5 1t-23 0.5l-44 -236q-2 -14 -3.5 -24t-1.5 -17q0 -11 4 -18.5t14.5 -12t28.5 -6t46 -1.5
h12q53 0 87.5 7.5t58.5 24.5t41.5 45t36.5 69h10l-36 -165q-38 3 -115 3h-231zM500 894l5 -6l-120 -158h-16l-61 158l7 5l71 -102z" />
    <glyph glyph-name="ecaron" unicode="&#x11b;" horiz-adv-x="401" 
d="M395 352q0 -39 -20 -61t-51.5 -33.5t-71 -14.5t-78.5 -3h-56q-2 -8 -6 -33t-4 -55q0 -55 24.5 -91.5t77.5 -36.5q23 0 43 8.5t35 20t25 23t15 18.5l9 -7q-11 -18 -26 -35t-35 -30.5t-44.5 -22t-54.5 -8.5q-70 0 -103 42t-33 118q0 54 18 105.5t50 91t76.5 63.5t97.5 24
q54 0 83 -20.5t29 -62.5zM338 361q0 30 -16.5 45t-43.5 15q-24 0 -47.5 -12t-44.5 -33.5t-38 -52.5t-27 -69h31q42 0 76 5.5t58.5 18t38 33t13.5 50.5zM416 664l5 -6l-120 -158h-16l-61 158l7 5l71 -102z" />
    <glyph glyph-name="Gcircumflex" unicode="&#x11c;" horiz-adv-x="631" 
d="M471 118q8 42 12 63.5t4 35.5q0 32 -21 41t-53 12l2 9q19 0 49 -1t62 -1q36 0 67 1t50 1l-2 -9q-15 -2 -29 -5.5t-25.5 -12.5t-20 -25t-14.5 -44l-8 -39q-9 -42 -13 -62.5t-7 -41.5l-2 -2q-38 -19 -87.5 -34t-113.5 -15q-123 0 -187.5 67t-64.5 201q0 75 21.5 149
t64.5 133t107.5 96t150.5 37q60 0 102 -11.5t69 -22.5q3 0 7 2q5 0 9 -4l-27 -173h-13q1 8 1 15.5v15.5q0 31 -9 59.5t-27.5 50.5t-46.5 35t-66 13q-43 0 -79.5 -17.5t-65.5 -47.5t-50.5 -69t-36 -81t-22 -85.5t-7.5 -81.5q0 -125 44.5 -193t131.5 -68q66 0 100 30.5
t44 78.5zM337 732l-5 6l120 158h16l61 -158l-7 -5l-71 102z" />
    <glyph glyph-name="gcircumflex" unicode="&#x11d;" horiz-adv-x="446" 
d="M239 433q68 0 106 -38q13 17 33 32t49 15q20 0 35 -10t15 -32q0 -19 -10 -26.5t-23 -7.5q-30 0 -30 26v5q0 7 -4 12t-14 5q-13 0 -25 -9.5t-19 -17.5q12 -17 20 -35.5t8 -44.5q0 -37 -13.5 -68t-38 -53t-59 -34.5t-75.5 -12.5q-18 0 -23 1l-8 2q-11 -4 -22 -10t-20 -13.5
t-14.5 -15.5t-5.5 -17q0 -20 16.5 -26t47.5 -13q36 -8 74.5 -15.5t74.5 -21.5q31 -11 49.5 -32.5t18.5 -55.5q0 -37 -18 -66t-49.5 -49.5t-75 -31t-94.5 -10.5q-37 0 -69 7t-56 21t-38 36t-14 51q0 26 11.5 47t30.5 37t43 27.5t49 19.5q-7 3 -16 6.5t-16.5 9t-12.5 14.5
t-5 22q0 30 27 51t66 32q-17 5 -33.5 13.5t-29.5 22.5t-21 33.5t-8 46.5q0 36 14.5 67t39.5 54.5t59 36.5t73 13zM155 -214q36 0 67 8.5t53 24t34.5 36.5t12.5 46q0 23 -11 38.5t-30.5 25.5t-45 16.5t-54.5 12.5q-23 3 -45 8q-12 3 -24 5q-16 -9 -31.5 -20.5t-28 -25.5
t-20 -31.5t-7.5 -38.5q0 -48 33.5 -76.5t96.5 -28.5zM189 156q34 0 59 15.5t40.5 39.5t23 54t7.5 59q0 18 -4 35t-13.5 29.5t-25 20.5t-38.5 8q-30 0 -53.5 -14t-40 -37t-25 -52t-8.5 -60q0 -40 17.5 -69t60.5 -29zM176 502l-5 6l120 158h16l61 -158l-7 -5l-71 102z" />
    <glyph glyph-name="Gbreve" unicode="&#x11e;" horiz-adv-x="631" 
d="M471 118q8 42 12 63.5t4 35.5q0 32 -21 41t-53 12l2 9q19 0 49 -1t62 -1q36 0 67 1t50 1l-2 -9q-15 -2 -29 -5.5t-25.5 -12.5t-20 -25t-14.5 -44l-8 -39q-9 -42 -13 -62.5t-7 -41.5l-2 -2q-38 -19 -87.5 -34t-113.5 -15q-123 0 -187.5 67t-64.5 201q0 75 21.5 149
t64.5 133t107.5 96t150.5 37q60 0 102 -11.5t69 -22.5q3 0 7 2q5 0 9 -4l-27 -173h-13q1 8 1 15.5v15.5q0 31 -9 59.5t-27.5 50.5t-46.5 35t-66 13q-43 0 -79.5 -17.5t-65.5 -47.5t-50.5 -69t-36 -81t-22 -85.5t-7.5 -81.5q0 -125 44.5 -193t131.5 -68q66 0 100 30.5
t44 78.5zM449 788q48 0 78 23.5t50 54.5l9 -4q-5 -11 -14.5 -29.5t-27 -36t-42.5 -30t-61 -12.5q-35 0 -55.5 13t-31.5 31t-14.5 36.5t-3.5 29.5l10 2q6 -31 30.5 -54.5t72.5 -23.5z" />
    <glyph glyph-name="gbreve" unicode="&#x11f;" horiz-adv-x="446" 
d="M239 433q68 0 106 -38q13 17 33 32t49 15q20 0 35 -10t15 -32q0 -19 -10 -26.5t-23 -7.5q-30 0 -30 26v5q0 7 -4 12t-14 5q-13 0 -25 -9.5t-19 -17.5q12 -17 20 -35.5t8 -44.5q0 -37 -13.5 -68t-38 -53t-59 -34.5t-75.5 -12.5q-18 0 -23 1l-8 2q-11 -4 -22 -10t-20 -13.5
t-14.5 -15.5t-5.5 -17q0 -20 16.5 -26t47.5 -13q36 -8 74.5 -15.5t74.5 -21.5q31 -11 49.5 -32.5t18.5 -55.5q0 -37 -18 -66t-49.5 -49.5t-75 -31t-94.5 -10.5q-37 0 -69 7t-56 21t-38 36t-14 51q0 26 11.5 47t30.5 37t43 27.5t49 19.5q-7 3 -16 6.5t-16.5 9t-12.5 14.5
t-5 22q0 30 27 51t66 32q-17 5 -33.5 13.5t-29.5 22.5t-21 33.5t-8 46.5q0 36 14.5 67t39.5 54.5t59 36.5t73 13zM155 -214q36 0 67 8.5t53 24t34.5 36.5t12.5 46q0 23 -11 38.5t-30.5 25.5t-45 16.5t-54.5 12.5q-23 3 -45 8q-12 3 -24 5q-16 -9 -31.5 -20.5t-28 -25.5
t-20 -31.5t-7.5 -38.5q0 -48 33.5 -76.5t96.5 -28.5zM189 156q34 0 59 15.5t40.5 39.5t23 54t7.5 59q0 18 -4 35t-13.5 29.5t-25 20.5t-38.5 8q-30 0 -53.5 -14t-40 -37t-25 -52t-8.5 -60q0 -40 17.5 -69t60.5 -29zM281 558q48 0 78 23.5t50 54.5l9 -4q-5 -11 -14.5 -29.5
t-27 -36t-42.5 -30t-61 -12.5q-35 0 -55.5 13t-31.5 31t-14.5 36.5t-3.5 29.5l10 2q6 -31 30.5 -54.5t72.5 -23.5z" />
    <glyph glyph-name="Gdotaccent" unicode="&#x120;" horiz-adv-x="631" 
d="M471 118q8 42 12 63.5t4 35.5q0 32 -21 41t-53 12l2 9q19 0 49 -1t62 -1q36 0 67 1t50 1l-2 -9q-15 -2 -29 -5.5t-25.5 -12.5t-20 -25t-14.5 -44l-8 -39q-9 -42 -13 -62.5t-7 -41.5l-2 -2q-38 -19 -87.5 -34t-113.5 -15q-123 0 -187.5 67t-64.5 201q0 75 21.5 149
t64.5 133t107.5 96t150.5 37q60 0 102 -11.5t69 -22.5q3 0 7 2q5 0 9 -4l-27 -173h-13q1 8 1 15.5v15.5q0 31 -9 59.5t-27.5 50.5t-46.5 35t-66 13q-43 0 -79.5 -17.5t-65.5 -47.5t-50.5 -69t-36 -81t-22 -85.5t-7.5 -81.5q0 -125 44.5 -193t131.5 -68q66 0 100 30.5
t44 78.5zM415 863q0 18 12.5 30.5t30.5 12.5t30.5 -12.5t12.5 -30.5t-12.5 -30.5t-30.5 -12.5t-30.5 12.5t-12.5 30.5z" />
    <glyph glyph-name="gdotaccent" unicode="&#x121;" horiz-adv-x="446" 
d="M239 433q68 0 106 -38q13 17 33 32t49 15q20 0 35 -10t15 -32q0 -19 -10 -26.5t-23 -7.5q-30 0 -30 26v5q0 7 -4 12t-14 5q-13 0 -25 -9.5t-19 -17.5q12 -17 20 -35.5t8 -44.5q0 -37 -13.5 -68t-38 -53t-59 -34.5t-75.5 -12.5q-18 0 -23 1l-8 2q-11 -4 -22 -10t-20 -13.5
t-14.5 -15.5t-5.5 -17q0 -20 16.5 -26t47.5 -13q36 -8 74.5 -15.5t74.5 -21.5q31 -11 49.5 -32.5t18.5 -55.5q0 -37 -18 -66t-49.5 -49.5t-75 -31t-94.5 -10.5q-37 0 -69 7t-56 21t-38 36t-14 51q0 26 11.5 47t30.5 37t43 27.5t49 19.5q-7 3 -16 6.5t-16.5 9t-12.5 14.5
t-5 22q0 30 27 51t66 32q-17 5 -33.5 13.5t-29.5 22.5t-21 33.5t-8 46.5q0 36 14.5 67t39.5 54.5t59 36.5t73 13zM155 -214q36 0 67 8.5t53 24t34.5 36.5t12.5 46q0 23 -11 38.5t-30.5 25.5t-45 16.5t-54.5 12.5q-23 3 -45 8q-12 3 -24 5q-16 -9 -31.5 -20.5t-28 -25.5
t-20 -31.5t-7.5 -38.5q0 -48 33.5 -76.5t96.5 -28.5zM189 156q34 0 59 15.5t40.5 39.5t23 54t7.5 59q0 18 -4 35t-13.5 29.5t-25 20.5t-38.5 8q-30 0 -53.5 -14t-40 -37t-25 -52t-8.5 -60q0 -40 17.5 -69t60.5 -29zM252 633q0 18 12.5 30.5t30.5 12.5t30.5 -12.5t12.5 -30.5
t-12.5 -30.5t-30.5 -12.5t-30.5 12.5t-12.5 30.5z" />
    <glyph glyph-name="Gcommaaccent" unicode="&#x122;" horiz-adv-x="631" 
d="M471 118q8 42 12 63.5t4 35.5q0 32 -21 41t-53 12l2 9q19 0 49 -1t62 -1q36 0 67 1t50 1l-2 -9q-15 -2 -29 -5.5t-25.5 -12.5t-20 -25t-14.5 -44l-8 -39q-9 -42 -13 -62.5t-7 -41.5l-2 -2q-38 -19 -87.5 -34t-113.5 -15q-123 0 -187.5 67t-64.5 201q0 75 21.5 149
t64.5 133t107.5 96t150.5 37q60 0 102 -11.5t69 -22.5q3 0 7 2q5 0 9 -4l-27 -173h-13q1 8 1 15.5v15.5q0 31 -9 59.5t-27.5 50.5t-46.5 35t-66 13q-43 0 -79.5 -17.5t-65.5 -47.5t-50.5 -69t-36 -81t-22 -85.5t-7.5 -81.5q0 -125 44.5 -193t131.5 -68q66 0 100 30.5
t44 78.5zM257 -221q24 12 44 35.5t21 54.5h-1q-2 -1 -6.5 -2.5t-12.5 -1.5q-18 0 -30.5 11t-12.5 33q0 20 13 31.5t32 11.5q27 0 40.5 -18.5t13.5 -43.5q0 -20 -8 -39t-21 -35t-31 -28t-37 -18z" />
    <glyph glyph-name="gcommaaccent" unicode="&#x123;" horiz-adv-x="446" 
d="M323 655q-24 -12 -44 -34t-21 -54h1q2 1 7 2.5t13 1.5q20 0 33 -11.5t13 -34.5q0 -20 -14 -32.5t-34 -12.5q-29 0 -43 19.5t-14 45.5q0 43 30 74.5t69 44.5zM239 433q68 0 106 -38q13 17 33 32t49 15q20 0 35 -10t15 -32q0 -19 -10 -26.5t-23 -7.5q-30 0 -30 26v5
q0 7 -4 12t-14 5q-13 0 -25 -9.5t-19 -17.5q12 -17 20 -35.5t8 -44.5q0 -37 -13.5 -68t-38 -53t-59 -34.5t-75.5 -12.5q-18 0 -23 1l-8 2q-11 -4 -22 -10t-20 -13.5t-14.5 -15.5t-5.5 -17q0 -20 16.5 -26t47.5 -13q36 -8 74.5 -15.5t74.5 -21.5q31 -11 49.5 -32.5
t18.5 -55.5q0 -37 -18 -66t-49.5 -49.5t-75 -31t-94.5 -10.5q-37 0 -69 7t-56 21t-38 36t-14 51q0 26 11.5 47t30.5 37t43 27.5t49 19.5q-7 3 -16 6.5t-16.5 9t-12.5 14.5t-5 22q0 30 27 51t66 32q-17 5 -33.5 13.5t-29.5 22.5t-21 33.5t-8 46.5q0 36 14.5 67t39.5 54.5
t59 36.5t73 13zM155 -214q36 0 67 8.5t53 24t34.5 36.5t12.5 46q0 23 -11 38.5t-30.5 25.5t-45 16.5t-54.5 12.5q-23 3 -45 8q-12 3 -24 5q-16 -9 -31.5 -20.5t-28 -25.5t-20 -31.5t-7.5 -38.5q0 -48 33.5 -76.5t96.5 -28.5zM189 156q34 0 59 15.5t40.5 39.5t23 54t7.5 59
q0 18 -4 35t-13.5 29.5t-25 20.5t-38.5 8q-30 0 -53.5 -14t-40 -37t-25 -52t-8.5 -60q0 -40 17.5 -69t60.5 -29z" />
    <glyph glyph-name="Hcircumflex" unicode="&#x124;" horiz-adv-x="677" 
d="M625 656q28 0 56 0.5t59 1.5l-2 -8q-20 -2 -35.5 -5.5t-27.5 -13t-20.5 -26.5t-14.5 -45q-22 -112 -45.5 -230.5t-44.5 -231.5q-2 -11 -3 -20.5t-1 -16.5q0 -16 5 -25.5t14.5 -15t22.5 -8.5t30 -4l-2 -8h-39t-29.5 0.5t-25 0.5h-24.5h-17t-22 -0.5t-32.5 -0.5h-48.5l2 8
q20 2 36 5.5t28 13t20.5 26t13.5 45.5l44 232h-313l-44 -232q-2 -11 -3 -20.5t-1 -16.5q0 -16 5 -25.5t14.5 -15t22.5 -8.5t29 -4l-2 -8h-39t-29.5 0.5t-25 0.5h-24.5q-17 0 -48 -0.5t-71 -0.5l2 8q19 2 34.5 5.5t27.5 13t20.5 26t14.5 45.5q22 113 45.5 230.5t44.5 230.5
q2 11 3 20t1 16q0 33 -19.5 42.5t-51.5 12.5l2 8q23 -1 49 -1.5t69 -0.5q29 0 58.5 0.5t61.5 1.5l-2 -8q-20 -2 -36 -5.5t-28 -13t-20.5 -26.5t-14.5 -45l-39 -205h313q4 22 9.5 48.5t10.5 53.5t10 53t9 49q2 12 3 20.5t1 15.5q0 33 -19.5 42.5t-51.5 12.5q1 1 1 3q0 4 1 5
q24 -2 51 -2h72zM343 732l-5 6l120 158h16l61 -158l-7 -5l-71 102z" />
    <glyph glyph-name="hcircumflex" unicode="&#x125;" horiz-adv-x="486" 
d="M199 494q-8 -40 -12.5 -63t-6.5 -35t-3 -16t-2 -7l-28 -122h5q12 29 31 61t44.5 59t56.5 44.5t66 17.5q34 0 48 -17t14 -47q0 -17 -3.5 -35t-7.5 -35l-33 -143q-6 -29 -12 -56t-6 -42q0 -11 3 -17.5t13 -6.5q6 0 16.5 5t22 13t23 18.5t21.5 21.5l7 -7q-11 -14 -26 -30.5
t-32.5 -30.5t-37 -23.5t-38.5 -9.5q-38 0 -38 41q0 11 2.5 26.5t6.5 32.5l52 236q4 19 4 31q0 16 -8 26t-28 10q-36 0 -67.5 -29.5t-57 -73.5t-43 -95t-24.5 -94q-5 -26 -10 -51t-10 -51h-59q5 21 10 47q5 22 10.5 50t11.5 58l87 440q2 8 3 15t1 14q0 20 -17.5 32.5
t-59.5 17.5l2 9q48 1 76.5 2t44.5 2t22.5 1h10.5q-1 0 -5 -16.5t-10.5 -43.5t-14.5 -62t-15 -72zM122 735l-5 6l120 158h16l61 -158l-7 -5l-71 102z" />
    <glyph glyph-name="Hbar" unicode="&#x126;" horiz-adv-x="677" 
d="M625 656q28 0 56 0.5t59 1.5l-2 -8q-20 -2 -35.5 -5.5t-27.5 -13t-20.5 -26.5t-14.5 -45q-22 -112 -45.5 -230.5t-44.5 -231.5q-2 -11 -3 -20.5t-1 -16.5q0 -16 5 -25.5t14.5 -15t22.5 -8.5t30 -4l-2 -8h-39t-29.5 0.5t-25 0.5h-24.5h-17t-22 -0.5t-32.5 -0.5h-48.5l2 8
q20 2 36 5.5t28 13t20.5 26t13.5 45.5l44 232h-313l-44 -232q-2 -11 -3 -20.5t-1 -16.5q0 -16 5 -25.5t14.5 -15t22.5 -8.5t29 -4l-2 -8h-39t-29.5 0.5t-25 0.5h-24.5q-17 0 -48 -0.5t-71 -0.5l2 8q19 2 34.5 5.5t27.5 13t20.5 26t14.5 45.5q22 113 45.5 230.5t44.5 230.5
q2 11 3 20t1 16q0 33 -19.5 42.5t-51.5 12.5l2 8q23 -1 49 -1.5t69 -0.5q29 0 58.5 0.5t61.5 1.5l-2 -8q-20 -2 -36 -5.5t-28 -13t-20.5 -26.5t-14.5 -45l-11 -54h314q2 14 5 27.5t5 25.5t3 20.5t1 15.5q0 33 -19.5 42.5t-51.5 12.5q1 1 1 3q0 4 1 5q24 -2 51 -2h72z
M552 481h-313l-24 -126h313z" />
    <glyph glyph-name="hbar" unicode="&#x127;" horiz-adv-x="486" 
d="M206 528q-2 -9 -3.5 -17.5t-3.5 -16.5q-8 -40 -12.5 -63t-6.5 -35t-3 -16t-2 -7l-28 -122h5q12 29 31 61t44.5 59t56.5 44.5t66 17.5q34 0 48 -17t14 -47q0 -17 -3.5 -35t-7.5 -35l-33 -143q-6 -29 -12 -56t-6 -42q0 -11 3 -17.5t13 -6.5q6 0 16.5 5t22 13t23 18.5
t21.5 21.5l7 -7q-11 -14 -26 -30.5t-32.5 -30.5t-37 -23.5t-38.5 -9.5q-38 0 -38 41q0 11 2.5 26.5t6.5 32.5l52 236q4 19 4 31q0 16 -8 26t-28 10q-36 0 -67.5 -29.5t-57 -73.5t-43 -95t-24.5 -94q-5 -26 -10 -51t-10 -51h-59q5 21 10 47q5 22 10.5 50t11.5 58l74 373h-79
l4 15h78l10 52q2 8 3 15t1 14q0 20 -17.5 32.5t-59.5 17.5l2 9q48 1 76.5 2t44.5 2t22.5 1h10.5q-1 0 -4 -11.5t-8 -31.5t-11 -46t-12 -56h76l-4 -15h-75z" />
    <glyph glyph-name="Itilde" unicode="&#x128;" horiz-adv-x="282" 
d="M165 98q-2 -11 -3 -20.5t-1 -16.5q0 -16 5 -25.5t14.5 -15t22.5 -8.5t29 -4l-2 -8h-39t-29.5 0.5t-25 0.5h-24.5q-17 0 -48 -0.5t-71 -0.5l2 8q19 2 34.5 5.5t27.5 13t20.5 26t14.5 45.5q22 113 45.5 230.5t44.5 230.5q2 11 3 20t1 16q0 33 -19.5 42.5t-51.5 12.5l2 8
q23 -1 49 -1.5t69 -0.5q29 0 58.5 0.5t61.5 1.5l-2 -8q-20 -2 -36 -5.5t-28 -13t-20.5 -26.5t-14.5 -45zM200 851q10 0 20 -2t30 -10l28 -12q14 -6 26.5 -11t23.5 -5q18 0 31 7.5t24 27.5l7 -3q-12 -39 -31.5 -52t-45.5 -13q-11 0 -21.5 2.5t-30.5 10.5l-28 12
q-14 6 -26.5 10.5t-23.5 4.5q-17 0 -32.5 -12.5t-26.5 -32.5l-7 3q12 39 33 57t50 18z" />
    <glyph glyph-name="itilde" unicode="&#x129;" horiz-adv-x="252" 
d="M114 334q2 8 3 15t1 14q0 21 -18 33.5t-60 17.5l2 9q48 1 76 2t43.5 2t22 1h10.5l-8 -37q-7 -32 -15.5 -70.5t-19.5 -95.5l-13 -63q-7 -32 -13 -61.5t-6 -43.5q0 -23 16 -23q7 0 17.5 5t21.5 13t22.5 18.5t21.5 21.5l7 -7q-11 -14 -26 -30.5t-32.5 -30.5t-37.5 -23.5
t-40 -9.5q-19 0 -26.5 10t-7.5 27q0 12 2.5 29t5.5 32zM126 621q10 0 20 -2t30 -10l28 -12q14 -6 26.5 -11t23.5 -5q18 0 31 7.5t24 27.5l7 -3q-12 -39 -31.5 -52t-45.5 -13q-11 0 -21.5 2.5t-30.5 10.5l-28 12q-14 6 -26.5 10.5t-23.5 4.5q-17 0 -32.5 -12.5t-26.5 -32.5
l-7 3q12 39 33 57t50 18z" />
    <glyph glyph-name="Imacron" unicode="&#x12a;" horiz-adv-x="292" 
d="M165 98q-2 -11 -3 -20.5t-1 -16.5q0 -16 5 -25.5t14.5 -15t22.5 -8.5t29 -4l-2 -8h-39t-29.5 0.5t-25 0.5h-24.5q-17 0 -48 -0.5t-71 -0.5l2 8q19 2 34.5 5.5t27.5 13t20.5 26t14.5 45.5q22 113 45.5 230.5t44.5 230.5q2 11 3 20t1 16q0 33 -19.5 42.5t-51.5 12.5l2 8
q23 -1 49 -1.5t69 -0.5q29 0 58.5 0.5t61.5 1.5l-2 -8q-20 -2 -36 -5.5t-28 -13t-20.5 -26.5t-14.5 -45zM147 796l9 32h237l-9 -32h-237z" />
    <glyph glyph-name="imacron" unicode="&#x12b;" horiz-adv-x="252" 
d="M114 334q2 8 3 15t1 14q0 21 -18 33.5t-60 17.5l2 9q48 1 76 2t43.5 2t22 1h10.5l-8 -37q-7 -32 -15.5 -70.5t-19.5 -95.5l-13 -63q-7 -32 -13 -61.5t-6 -43.5q0 -23 16 -23q7 0 17.5 5t21.5 13t22.5 18.5t21.5 21.5l7 -7q-11 -14 -26 -30.5t-32.5 -30.5t-37.5 -23.5
t-40 -9.5q-19 0 -26.5 10t-7.5 27q0 12 2.5 29t5.5 32zM60 566l9 32h237l-9 -32h-237z" />
    <glyph glyph-name="Ibreve" unicode="&#x12c;" horiz-adv-x="282" 
d="M165 98q-2 -11 -3 -20.5t-1 -16.5q0 -16 5 -25.5t14.5 -15t22.5 -8.5t29 -4l-2 -8h-39t-29.5 0.5t-25 0.5h-24.5q-17 0 -48 -0.5t-71 -0.5l2 8q19 2 34.5 5.5t27.5 13t20.5 26t14.5 45.5q22 113 45.5 230.5t44.5 230.5q2 11 3 20t1 16q0 33 -19.5 42.5t-51.5 12.5l2 8
q23 -1 49 -1.5t69 -0.5q29 0 58.5 0.5t61.5 1.5l-2 -8q-20 -2 -36 -5.5t-28 -13t-20.5 -26.5t-14.5 -45zM268 788q48 0 78 23.5t50 54.5l9 -4q-5 -11 -14.5 -29.5t-27 -36t-42.5 -30t-61 -12.5q-35 0 -55.5 13t-31.5 31t-14.5 36.5t-3.5 29.5l10 2q6 -31 30.5 -54.5
t72.5 -23.5z" />
    <glyph glyph-name="ibreve" unicode="&#x12d;" horiz-adv-x="252" 
d="M114 334q2 8 3 15t1 14q0 21 -18 33.5t-60 17.5l2 9q48 1 76 2t43.5 2t22 1h10.5l-8 -37q-7 -32 -15.5 -70.5t-19.5 -95.5l-13 -63q-7 -32 -13 -61.5t-6 -43.5q0 -23 16 -23q7 0 17.5 5t21.5 13t22.5 18.5t21.5 21.5l7 -7q-11 -14 -26 -30.5t-32.5 -30.5t-37.5 -23.5
t-40 -9.5q-19 0 -26.5 10t-7.5 27q0 12 2.5 29t5.5 32zM180 558q48 0 78 23.5t50 54.5l9 -4q-5 -11 -14.5 -29.5t-27 -36t-42.5 -30t-61 -12.5q-35 0 -55.5 13t-31.5 31t-14.5 36.5t-3.5 29.5l10 2q6 -31 30.5 -54.5t72.5 -23.5z" />
    <glyph glyph-name="Iogonek" unicode="&#x12e;" horiz-adv-x="292" 
d="M167 -205q-10 -5 -24 -8t-31 -3t-33.5 3t-30.5 10.5t-22.5 21.5t-8.5 37t12.5 45t30.5 41t38 34.5t34 24.5h-20q-17 0 -48 -0.5t-71 -0.5l2 8q19 2 34.5 5.5t27.5 13t20.5 26t14.5 45.5q22 113 45.5 230.5t44.5 230.5q2 11 3 20t1 16q0 33 -19.5 42.5t-51.5 12.5l2 8
q23 -1 49 -1.5t69 -0.5q29 0 58.5 0.5t61.5 1.5l-2 -8q-20 -2 -36 -5.5t-28 -13t-20.5 -26.5t-14.5 -45l-89 -462q-2 -11 -3 -20.5t-1 -16.5q0 -16 5 -25.5t14.5 -15t22.5 -8.5t29 -4l-2 -8h-48.5t-35.5 1q-12 -10 -26.5 -24.5t-27 -32.5t-21 -39.5t-8.5 -44.5q0 -32 17 -47
t47 -15q20 0 38 6z" />
    <glyph glyph-name="iogonek" unicode="&#x12f;" horiz-adv-x="252" 
d="M153 -205q-10 -5 -24 -8t-31 -3t-33.5 3t-30.5 10.5t-22.5 21.5t-8.5 37q0 21 10.5 41t26 38t33.5 32.5t33 25.5q-5 -1 -8.5 -1.5t-8.5 -0.5q-19 0 -26.5 10t-7.5 27q0 12 2.5 29t5.5 32l51 245q2 8 3 15t1 14q0 21 -18 33.5t-60 17.5l2 9q48 1 76 2t43.5 2t22 1h10.5
l-8 -37q-7 -32 -15.5 -70.5t-19.5 -95.5l-13 -63q-7 -32 -13 -61.5t-6 -43.5q0 -23 16 -23q7 0 17.5 5t21.5 13t22.5 18.5t21.5 21.5l7 -7q-16 -20 -39 -44t-51 -38q-12 -10 -27 -24.5t-28 -33t-22 -40t-9 -45.5q0 -32 17 -47t47 -15q20 0 38 6zM145 638q0 19 13 32t32 13
t32 -13t13 -32t-13 -32t-32 -13t-32 13t-13 32z" />
    <glyph glyph-name="Idotaccent" unicode="&#x130;" horiz-adv-x="282" 
d="M165 98q-2 -11 -3 -20.5t-1 -16.5q0 -16 5 -25.5t14.5 -15t22.5 -8.5t29 -4l-2 -8h-39t-29.5 0.5t-25 0.5h-24.5q-17 0 -48 -0.5t-71 -0.5l2 8q19 2 34.5 5.5t27.5 13t20.5 26t14.5 45.5q22 113 45.5 230.5t44.5 230.5q2 11 3 20t1 16q0 33 -19.5 42.5t-51.5 12.5l2 8
q23 -1 49 -1.5t69 -0.5q29 0 58.5 0.5t61.5 1.5l-2 -8q-20 -2 -36 -5.5t-28 -13t-20.5 -26.5t-14.5 -45zM230 863q0 18 12.5 30.5t30.5 12.5t30.5 -12.5t12.5 -30.5t-12.5 -30.5t-30.5 -12.5t-30.5 12.5t-12.5 30.5z" />
    <glyph glyph-name="dotlessi" unicode="&#x131;" horiz-adv-x="252" 
d="M114 334q2 8 3 15t1 14q0 21 -18 33.5t-60 17.5l2 9q48 1 76 2t43.5 2t22 1h10.5l-8 -37q-7 -32 -15.5 -70.5t-19.5 -95.5l-13 -63q-7 -32 -13 -61.5t-6 -43.5q0 -23 16 -23q7 0 17.5 5t21.5 13t22.5 18.5t21.5 21.5l7 -7q-11 -14 -26 -30.5t-32.5 -30.5t-37.5 -23.5
t-40 -9.5q-19 0 -26.5 10t-7.5 27q0 12 2.5 29t5.5 32z" />
    <glyph glyph-name="Jcircumflex" unicode="&#x134;" horiz-adv-x="371" 
d="M278 232q-9 -47 -22.5 -93t-36 -82t-55.5 -58t-82 -22q-56 0 -77.5 21t-21.5 48q0 17 10 27.5t30 10.5q38 0 38 -31q0 -7 -0.5 -13t-0.5 -14q0 -13 5 -25.5t28 -12.5q24 0 40.5 17t28.5 46.5t20.5 69t17.5 84.5l70 356q2 12 3 20t1 16q0 31 -22 40t-63 12l1 9
q9 0 25 -0.5t34 -1t37 -0.5h35q36 0 66 0.5t49 1.5l-1 -9q-20 -2 -35 -5.5t-26.5 -12.5t-19.5 -25t-13 -44zM239 732l-5 6l120 158h16l61 -158l-7 -5l-71 102z" />
    <glyph glyph-name="jcircumflex" unicode="&#x135;" horiz-adv-x="241" 
d="M131 334q2 8 3 15t1 14q0 21 -18 33.5t-60 17.5l2 9q48 1 76 2t43.5 2t22 1h10.5q-7 -27 -12.5 -52t-10.5 -49t-9.5 -49t-10.5 -53l-43 -221q-9 -47 -23 -88.5t-35 -73.5t-49.5 -50.5t-66.5 -18.5q-50 0 -69 18t-19 42q0 17 9.5 26.5t28.5 9.5q33 0 33 -28q0 -6 -0.5 -13
t-0.5 -11q0 -13 4.5 -22.5t24.5 -9.5q23 0 38.5 16t26 42.5t18 61t14.5 70.5zM91 502l-5 6l120 158h16l61 -158l-7 -5l-71 102z" />
    <glyph glyph-name="Kcommaaccent" unicode="&#x136;" horiz-adv-x="572" 
d="M667 649q-37 -6 -68 -21t-60 -41l-248 -218l160 -266q14 -23 24.5 -39.5t21.5 -28t25 -17.5t34 -9l-2 -9h-12q-7 0 -20 0.5t-33 0.5q-11 0 -22.5 -0.5t-20.5 -0.5h-21l-193 337l1 8l246 223q20 19 27.5 29t7.5 21q0 17 -18.5 23t-39.5 8l2 9q23 -1 51.5 -1.5t57.5 -0.5
q31 0 53.5 0.5t48.5 1.5zM165 98q-2 -11 -3 -20.5t-1 -16.5q0 -16 5 -25.5t14.5 -15t22.5 -8.5t29 -4l-2 -8h-39t-29.5 0.5t-25 0.5h-24.5q-17 0 -48 -0.5t-71 -0.5l2 8q19 2 34.5 5.5t27.5 13t20.5 26t14.5 45.5q22 113 45.5 230.5t44.5 230.5q2 11 3 20t1 16
q0 33 -19.5 42.5t-51.5 12.5l2 8q23 -1 49 -1.5t69 -0.5q29 0 58.5 0.5t61.5 1.5l-2 -8q-20 -2 -36 -5.5t-28 -13t-20.5 -26.5t-14.5 -45zM210 -221q24 12 44 35.5t21 54.5h-1q-2 -1 -6.5 -2.5t-12.5 -1.5q-18 0 -30.5 11t-12.5 33q0 20 13 31.5t32 11.5q27 0 40.5 -18.5
t13.5 -43.5q0 -20 -8 -39t-21 -35t-31 -28t-37 -18z" />
    <glyph glyph-name="kcommaaccent" unicode="&#x137;" horiz-adv-x="441" 
d="M163 595q2 8 3 15t1 14q0 20 -17.5 32.5t-59.5 17.5l2 9q48 1 76 2t43.5 2t22 1h10.5l-7 -31q-5 -23 -11.5 -51.5t-13 -60t-13.5 -64.5t-13 -64l-83 -417h-60q5 22 10 48q5 22 10.5 49.5l11.5 57.5zM426 408q0 -24 -19 -45.5t-46.5 -40.5t-58.5 -35t-55 -28l-20 -10
q10 -27 21.5 -56.5t22.5 -57.5q7 -18 15.5 -36.5t18 -33.5t20 -24.5t22.5 -9.5q10 0 20 5t19 12t17 15.5t13 14.5l8 -6q-25 -38 -53.5 -59t-57.5 -21q-25 0 -41.5 17.5t-32.5 55.5q-11 25 -24.5 63t-25.5 72l-13 37q30 16 63 34.5t59 36.5q24 17 41 33.5t17 43.5v13
q0 19 8 29.5t28 10.5q17 0 25.5 -8t8.5 -22zM130 -221q24 12 44 35.5t21 54.5h-1q-2 -1 -6.5 -2.5t-12.5 -1.5q-18 0 -30.5 11t-12.5 33q0 20 13 31.5t32 11.5q27 0 40.5 -18.5t13.5 -43.5q0 -20 -8 -39t-21 -35t-31 -28t-37 -18z" />
    <glyph glyph-name="kgreenlandic" unicode="&#x138;" horiz-adv-x="456" 
d="M126 336q2 8 3 15t1 14q0 20 -17.5 32.5t-59.5 17.5l2 9q48 1 76 2t43.5 2t22 1h10.5l-7 -31q-5 -23 -11.5 -51.5t-13 -60t-13.5 -64.5t-13 -64l-31 -158h-60q5 22 10 48q5 22 10.5 49.5l11.5 57.5zM441 408q0 -24 -19 -45.5t-46.5 -40.5t-58.5 -35t-55 -28l-20 -10
q10 -27 21.5 -56.5t22.5 -57.5q7 -18 15.5 -36.5t18 -33.5t20 -24.5t22.5 -9.5q10 0 20 5t19 12t17 15.5t13 14.5l8 -6q-25 -38 -53.5 -59t-57.5 -21q-25 0 -41.5 17.5t-32.5 55.5q-11 25 -24.5 63t-25.5 72l-13 37q30 16 63 34.5t59 36.5q24 17 41 33.5t17 43.5v13
q0 19 8 29.5t28 10.5q17 0 25.5 -8t8.5 -22z" />
    <glyph glyph-name="Lacute" unicode="&#x139;" horiz-adv-x="511" 
d="M164 96q-2 -14 -3.5 -24t-1.5 -17q0 -11 4 -18.5t14.5 -12t28.5 -6t46 -1.5h4q53 0 88 8t59.5 26t41.5 47t35 71h9l-37 -171q-38 3 -115 3h-220q-30 0 -64 -0.5t-60 -0.5v9q20 2 35.5 5.5t27.5 12.5t20 25t14 44l92 465q2 12 3 20t1 16q0 31 -19.5 40t-51.5 12l1 9
q9 0 24 -0.5t32 -0.5t35.5 -0.5t34.5 -0.5q36 0 68.5 1t51.5 1l-1 -9q-24 -2 -41.5 -5.5t-30.5 -12.5t-21.5 -25t-13.5 -44zM305 871l12 10t17 5q10 0 19.5 -6.5t9.5 -20.5q0 -13 -7 -20t-16 -12l-173 -90l-4 7z" />
    <glyph glyph-name="lacute" unicode="&#x13a;" horiz-adv-x="250" 
d="M167 593q2 8 3 15t1 14q0 21 -18 33.5t-60 17.5l2 9q48 1 76 2t43.5 2t22 1h10.5l-8 -37q-7 -32 -15.5 -70.5t-19.5 -95.5l-66 -322q-7 -32 -13 -61.5t-6 -43.5q0 -23 16 -23q7 0 17.5 5t21.5 13t22.5 18.5t21.5 21.5l7 -7q-11 -14 -26 -30.5t-32.5 -30.5t-37.5 -23.5
t-40 -9.5q-19 0 -26.5 10t-7.5 28q0 11 2.5 29.5t7.5 41.5zM271 873l12 10t17 5q10 0 19.5 -6.5t9.5 -20.5q0 -13 -7 -20t-16 -12l-173 -90l-4 7z" />
    <glyph glyph-name="Lcommaaccent" unicode="&#x13b;" horiz-adv-x="511" 
d="M164 96q-2 -14 -3.5 -24t-1.5 -17q0 -11 4 -18.5t14.5 -12t28.5 -6t46 -1.5h4q53 0 88 8t59.5 26t41.5 47t35 71h9l-37 -171q-38 3 -115 3h-220q-30 0 -64 -0.5t-60 -0.5v9q20 2 35.5 5.5t27.5 12.5t20 25t14 44l92 465q2 12 3 20t1 16q0 31 -19.5 40t-51.5 12l1 9
q9 0 24 -0.5t32 -0.5t35.5 -0.5t34.5 -0.5q36 0 68.5 1t51.5 1l-1 -9q-24 -2 -41.5 -5.5t-30.5 -12.5t-21.5 -25t-13.5 -44zM183 -221q24 12 44 35.5t21 54.5h-1q-2 -1 -6.5 -2.5t-12.5 -1.5q-18 0 -30.5 11t-12.5 33q0 20 13 31.5t32 11.5q27 0 40.5 -18.5t13.5 -43.5
q0 -20 -8 -39t-21 -35t-31 -28t-37 -18z" />
    <glyph glyph-name="lcommaaccent" unicode="&#x13c;" horiz-adv-x="250" 
d="M167 593q2 8 3 15t1 14q0 21 -18 33.5t-60 17.5l2 9q48 1 76 2t43.5 2t22 1h10.5l-8 -37q-7 -32 -15.5 -70.5t-19.5 -95.5l-66 -322q-7 -32 -13 -61.5t-6 -43.5q0 -23 16 -23q7 0 17.5 5t21.5 13t22.5 18.5t21.5 21.5l7 -7q-11 -14 -26 -30.5t-32.5 -30.5t-37.5 -23.5
t-40 -9.5q-19 0 -26.5 10t-7.5 28q0 11 2.5 29.5t7.5 41.5zM55 -221q24 12 44 35.5t21 54.5h-1q-2 -1 -6.5 -2.5t-12.5 -1.5q-18 0 -30.5 11t-12.5 33q0 20 13 31.5t32 11.5q27 0 40.5 -18.5t13.5 -43.5q0 -20 -8 -39t-21 -35t-31 -28t-37 -18z" />
    <glyph glyph-name="Lcaron" unicode="&#x13d;" horiz-adv-x="511" 
d="M164 96q-2 -14 -3.5 -24t-1.5 -17q0 -11 4 -18.5t14.5 -12t28.5 -6t46 -1.5h4q53 0 88 8t59.5 26t41.5 47t35 71h9l-37 -171q-38 3 -115 3h-220q-30 0 -64 -0.5t-60 -0.5v9q20 2 35.5 5.5t27.5 12.5t20 25t14 44l92 465q2 12 3 20t1 16q0 31 -19.5 40t-51.5 12l1 9
q9 0 24 -0.5t32 -0.5t35.5 -0.5t34.5 -0.5q36 0 68.5 1t51.5 1l-1 -9q-24 -2 -41.5 -5.5t-30.5 -12.5t-21.5 -25t-13.5 -44zM327 859q0 -24 -10 -48.5t-27 -45.5t-38.5 -38t-44.5 -27l-4 7q16 10 32.5 24.5t29.5 32t21 35.5t8 35v4q-2 -2 -9 -4.5t-19 -2.5q-20 0 -33.5 12
t-13.5 35q0 22 14 35t36 13q29 0 43.5 -19.5t14.5 -47.5z" />
    <glyph glyph-name="lcaron" unicode="&#x13e;" horiz-adv-x="405" 
d="M167 593q2 8 3 15t1 14q0 21 -18 33.5t-60 17.5l2 9q48 1 76 2t43.5 2t22 1h10.5l-8 -37q-7 -32 -15.5 -70.5t-19.5 -95.5l-66 -322q-7 -32 -13 -61.5t-6 -43.5q0 -23 16 -23q7 0 17.5 5t21.5 13t22.5 18.5t21.5 21.5l7 -7q-11 -14 -26 -30.5t-32.5 -30.5t-37.5 -23.5
t-40 -9.5q-19 0 -26.5 10t-7.5 28q0 11 2.5 29.5t7.5 41.5zM434 629q0 -24 -10 -48.5t-27 -45.5t-38.5 -38t-44.5 -27l-4 7q16 10 32.5 24.5t29.5 32t21 35.5t8 35v4q-2 -2 -9 -4.5t-19 -2.5q-20 0 -33.5 12t-13.5 35q0 22 14 35t36 13q29 0 43.5 -19.5t14.5 -47.5z" />
    <glyph glyph-name="Ldot" unicode="&#x13f;" horiz-adv-x="511" 
d="M164 96q-2 -14 -3.5 -24t-1.5 -17q0 -11 4 -18.5t14.5 -12t28.5 -6t46 -1.5h4q53 0 88 8t59.5 26t41.5 47t35 71h9l-37 -171q-38 3 -115 3h-220q-30 0 -64 -0.5t-60 -0.5v9q20 2 35.5 5.5t27.5 12.5t20 25t14 44l92 465q2 12 3 20t1 16q0 31 -19.5 40t-51.5 12l1 9
q9 0 24 -0.5t32 -0.5t35.5 -0.5t34.5 -0.5q36 0 68.5 1t51.5 1l-1 -9q-24 -2 -41.5 -5.5t-30.5 -12.5t-21.5 -25t-13.5 -44zM311 335q0 21 13.5 34.5t34.5 13.5q22 0 35.5 -13.5t13.5 -34.5q0 -22 -13 -35.5t-36 -13.5t-35.5 13.5t-12.5 35.5z" />
    <glyph glyph-name="ldot" unicode="&#x140;" horiz-adv-x="335" 
d="M167 593q2 8 3 15t1 14q0 21 -18 33.5t-60 17.5l2 9q48 1 76 2t43.5 2t22 1h10.5l-8 -37q-7 -32 -15.5 -70.5t-19.5 -95.5l-66 -322q-7 -32 -13 -61.5t-6 -43.5q0 -23 16 -23q7 0 17.5 5t21.5 13t22.5 18.5t21.5 21.5l7 -7q-11 -14 -26 -30.5t-32.5 -30.5t-37.5 -23.5
t-40 -9.5q-19 0 -26.5 10t-7.5 28q0 11 2.5 29.5t7.5 41.5zM246 284q0 21 13.5 34.5t34.5 13.5q22 0 35.5 -13.5t13.5 -34.5q0 -22 -13 -35.5t-36 -13.5t-35.5 13.5t-12.5 35.5z" />
    <glyph glyph-name="Lslash" unicode="&#x141;" horiz-adv-x="511" 
d="M214 354l79 40l1 -16l-84 -41l-46 -241q-2 -14 -3.5 -24t-1.5 -17q0 -11 4 -18.5t14.5 -12t28.5 -6t46 -1.5h4q53 0 88 8t59.5 26t41.5 47t35 71h9l-37 -171q-38 3 -115 3h-220q-30 0 -64 -0.5t-60 -0.5v9q20 2 35.5 5.5t27.5 12.5t20 25t14 44l39 200l-79 -41l-1 16
l84 42l49 248q2 12 3 20t1 16q0 31 -19.5 40t-51.5 12l1 9q9 0 24 -0.5t32 -0.5t35.5 -0.5t34.5 -0.5q36 0 68.5 1t51.5 1l-1 -9q-24 -2 -41.5 -5.5t-30.5 -12.5t-21.5 -25t-13.5 -44z" />
    <glyph glyph-name="lslash" unicode="&#x142;" horiz-adv-x="250" 
d="M112 327l-65 -33l-2 14l70 36l52 249q2 8 3 15t1 14q0 21 -18 33.5t-60 17.5l2 9q48 1 76 2t43.5 2t22 1h10.5l-8 -37q-7 -32 -15.5 -70.5t-19.5 -95.5l-22 -104l70 37l2 -15l-76 -41l-40 -199q-7 -32 -13 -61.5t-6 -43.5q0 -23 16 -23q7 0 17.5 5t21.5 13t22.5 18.5
t21.5 21.5l7 -7q-11 -14 -26 -30.5t-32.5 -30.5t-37.5 -23.5t-40 -9.5q-19 0 -26.5 10t-7.5 28q0 11 2.5 29.5t7.5 41.5z" />
    <glyph glyph-name="Nacute" unicode="&#x143;" horiz-adv-x="656" 
d="M602 558q2 12 3 20t1 16q0 31 -19.5 40t-53.5 12l2 12q19 -1 40.5 -1.5t53.5 -0.5q36 0 59 0.5t42 1.5l-2 -12q-20 -2 -36 -5.5t-28 -12.5t-20.5 -25t-13.5 -44l-110 -569h-12l-254 491l-26.5 53t-17.5 36h-2q-2 -16 -6.5 -38.5l-12.5 -62.5l-71 -370q-2 -11 -3 -21
t-1 -17q0 -29 21 -37.5t60 -11.5l-2 -12h-22t-19.5 0.5t-25 0.5h-37.5q-30 0 -51 -0.5t-47 -0.5l2 12q20 2 35.5 5.5t27.5 12.5t20 25t14 44l89 459q2 12 3 20t1 16q0 31 -19.5 40t-51.5 12l2 12q19 0 40.5 -1t47.5 -1h16.5t9 0.5t6 1t8.5 0.5l275 -529h2q1 7 4 23t6.5 35.5
t7.5 40.5t8 40zM495 871l12 10t17 5q10 0 19.5 -6.5t9.5 -20.5q0 -13 -7 -20t-16 -12l-173 -90l-4 7z" />
    <glyph glyph-name="nacute" unicode="&#x144;" horiz-adv-x="502" 
d="M164 251h5q12 29 31 61t44.5 59t56.5 44.5t66 17.5q34 0 48 -17t14 -47q0 -17 -3.5 -35t-7.5 -35l-33 -143q-6 -29 -12 -56t-6 -42q0 -11 3 -17.5t13 -6.5q6 0 16.5 5t22 13t23 18.5t21.5 21.5l7 -7q-11 -14 -26 -30.5t-32.5 -30.5t-37 -23.5t-38.5 -9.5q-38 0 -38 42
q0 14 3 31.5t7 33.5l51 229q4 19 4 31q0 16 -8 26t-28 10q-36 0 -67.5 -29.5t-57 -73.5t-43 -95t-24.5 -94q-5 -26 -10 -51t-10 -51h-59q5 21 10 47q5 22 10.5 50t11.5 58l36 188q1 5 1.5 10t0.5 9q0 29 -22.5 38.5t-54.5 13.5l2 9q68 2 105 3t47 2zM360 641l12 10t17 5
q10 0 19.5 -6.5t9.5 -20.5q0 -13 -7 -20t-16 -12l-173 -90l-4 7z" />
    <glyph glyph-name="Ncommaaccent" unicode="&#x145;" horiz-adv-x="656" 
d="M602 558q2 12 3 20t1 16q0 31 -19.5 40t-53.5 12l2 12q19 -1 40.5 -1.5t53.5 -0.5q36 0 59 0.5t42 1.5l-2 -12q-20 -2 -36 -5.5t-28 -12.5t-20.5 -25t-13.5 -44l-110 -569h-12l-254 491l-26.5 53t-17.5 36h-2q-2 -16 -6.5 -38.5l-12.5 -62.5l-71 -370q-2 -11 -3 -21
t-1 -17q0 -29 21 -37.5t60 -11.5l-2 -12h-22t-19.5 0.5t-25 0.5h-37.5q-30 0 -51 -0.5t-47 -0.5l2 12q20 2 35.5 5.5t27.5 12.5t20 25t14 44l89 459q2 12 3 20t1 16q0 31 -19.5 40t-51.5 12l2 12q19 0 40.5 -1t47.5 -1h16.5t9 0.5t6 1t8.5 0.5l275 -529h2q1 7 4 23t6.5 35.5
t7.5 40.5t8 40zM235 -221q24 12 44 35.5t21 54.5h-1q-2 -1 -6.5 -2.5t-12.5 -1.5q-18 0 -30.5 11t-12.5 33q0 20 13 31.5t32 11.5q27 0 40.5 -18.5t13.5 -43.5q0 -20 -8 -39t-21 -35t-31 -28t-37 -18z" />
    <glyph glyph-name="ncommaaccent" unicode="&#x146;" horiz-adv-x="502" 
d="M164 251h5q12 29 31 61t44.5 59t56.5 44.5t66 17.5q34 0 48 -17t14 -47q0 -17 -3.5 -35t-7.5 -35l-33 -143q-6 -29 -12 -56t-6 -42q0 -11 3 -17.5t13 -6.5q6 0 16.5 5t22 13t23 18.5t21.5 21.5l7 -7q-11 -14 -26 -30.5t-32.5 -30.5t-37 -23.5t-38.5 -9.5q-38 0 -38 42
q0 14 3 31.5t7 33.5l51 229q4 19 4 31q0 16 -8 26t-28 10q-36 0 -67.5 -29.5t-57 -73.5t-43 -95t-24.5 -94q-5 -26 -10 -51t-10 -51h-59q5 21 10 47q5 22 10.5 50t11.5 58l36 188q1 5 1.5 10t0.5 9q0 29 -22.5 38.5t-54.5 13.5l2 9q68 2 105 3t47 2zM158 -221q24 12 44 35.5
t21 54.5h-1q-2 -1 -6.5 -2.5t-12.5 -1.5q-18 0 -30.5 11t-12.5 33q0 20 13 31.5t32 11.5q27 0 40.5 -18.5t13.5 -43.5q0 -20 -8 -39t-21 -35t-31 -28t-37 -18z" />
    <glyph glyph-name="Ncaron" unicode="&#x147;" horiz-adv-x="656" 
d="M602 558q2 12 3 20t1 16q0 31 -19.5 40t-53.5 12l2 12q19 -1 40.5 -1.5t53.5 -0.5q36 0 59 0.5t42 1.5l-2 -12q-20 -2 -36 -5.5t-28 -12.5t-20.5 -25t-13.5 -44l-110 -569h-12l-254 491l-26.5 53t-17.5 36h-2q-2 -16 -6.5 -38.5l-12.5 -62.5l-71 -370q-2 -11 -3 -21
t-1 -17q0 -29 21 -37.5t60 -11.5l-2 -12h-22t-19.5 0.5t-25 0.5h-37.5q-30 0 -51 -0.5t-47 -0.5l2 12q20 2 35.5 5.5t27.5 12.5t20 25t14 44l89 459q2 12 3 20t1 16q0 31 -19.5 40t-51.5 12l2 12q19 0 40.5 -1t47.5 -1h16.5t9 0.5t6 1t8.5 0.5l275 -529h2q1 7 4 23t6.5 35.5
t7.5 40.5t8 40zM554 894l5 -6l-120 -158h-16l-61 158l7 5l71 -102z" />
    <glyph glyph-name="ncaron" unicode="&#x148;" horiz-adv-x="502" 
d="M164 251h5q12 29 31 61t44.5 59t56.5 44.5t66 17.5q34 0 48 -17t14 -47q0 -17 -3.5 -35t-7.5 -35l-33 -143q-6 -29 -12 -56t-6 -42q0 -11 3 -17.5t13 -6.5q6 0 16.5 5t22 13t23 18.5t21.5 21.5l7 -7q-11 -14 -26 -30.5t-32.5 -30.5t-37 -23.5t-38.5 -9.5q-38 0 -38 42
q0 14 3 31.5t7 33.5l51 229q4 19 4 31q0 16 -8 26t-28 10q-36 0 -67.5 -29.5t-57 -73.5t-43 -95t-24.5 -94q-5 -26 -10 -51t-10 -51h-59q5 21 10 47q5 22 10.5 50t11.5 58l36 188q1 5 1.5 10t0.5 9q0 29 -22.5 38.5t-54.5 13.5l2 9q68 2 105 3t47 2zM424 664l5 -6l-120 -158
h-16l-61 158l7 5l71 -102z" />
    <glyph glyph-name="Eng" unicode="&#x14a;" horiz-adv-x="654" 
d="M602 558q2 12 3 20t1 16q0 31 -19.5 40t-53.5 12l2 12q19 -1 40.5 -1.5t53.5 -0.5q36 0 59 0.5t42 1.5l-2 -12q-20 -2 -36 -5.5t-28 -12.5t-20.5 -25t-13.5 -44l-109 -565q-8 -41 -17 -80.5t-25 -70.5t-41 -50t-65 -19q-48 0 -68.5 18.5t-20.5 43.5q0 36 39 36
q16 0 26 -7t10 -21q0 -8 -0.5 -12t-0.5 -12q0 -10 4 -19.5t24 -9.5q22 0 39 16.5t29.5 45t22 65t16.5 77.5l3 18l-242 468l-26.5 53t-17.5 36h-2q-2 -16 -6.5 -38.5l-12.5 -62.5l-71 -370q-2 -11 -3 -21t-1 -17q0 -29 21 -37.5t60 -11.5l-2 -12h-22t-19.5 0.5t-25 0.5h-37.5
q-30 0 -51 -0.5t-47 -0.5l2 12q20 2 35.5 5.5t27.5 12.5t20 25t14 44l89 459q2 12 3 20t1 16q0 31 -19.5 40t-51.5 12l2 12q19 0 40.5 -1t47.5 -1h16.5t9 0.5t6 1t8.5 0.5l275 -529h2q1 7 4 23t6.5 35.5t7.5 40.5t8 40z" />
    <glyph glyph-name="eng" unicode="&#x14b;" horiz-adv-x="473" 
d="M357 4q-10 -47 -24.5 -89t-35.5 -73.5t-50 -50t-67 -18.5q-50 0 -69 18t-19 42q0 17 9.5 26.5t28.5 9.5q33 0 33 -28q0 -6 -0.5 -13t-0.5 -11q0 -13 4.5 -22.5t24.5 -9.5q23 0 38 16t25.5 43t18 61t15.5 70l74 352q4 19 4 31q0 16 -8 26t-28 10q-36 0 -67.5 -29.5
t-57 -73.5t-43 -95t-24.5 -94q-5 -26 -10 -51t-10 -51h-59q5 21 10 47q5 22 10.5 50t11.5 58l36 188q1 5 1.5 10t0.5 9q0 29 -22.5 38.5t-54.5 13.5l2 9q68 2 105 3t47 2l-42 -177h5q12 29 31 61t44.5 59t56.5 44.5t66 17.5q34 0 48 -17t14 -47q0 -17 -5 -43t-9 -45z" />
    <glyph glyph-name="Omacron" unicode="&#x14c;" horiz-adv-x="678" 
d="M653 411q0 -32 -6.5 -75.5t-21.5 -90.5t-40.5 -93t-64.5 -82t-92.5 -58.5t-123.5 -22.5q-62 0 -106.5 17t-73 50t-42 81t-13.5 110q0 38 7.5 84.5t24.5 94t44 92t65.5 78.5t89.5 55t117 21q115 0 175.5 -66.5t60.5 -194.5zM575 436q0 42 -8.5 81t-28 69t-50 48t-73.5 18
q-50 0 -89 -22.5t-69 -58.5t-51 -82t-34 -93t-19 -91.5t-6 -77.5q0 -41 7.5 -80.5t26 -70.5t49 -50t76.5 -19q53 0 93.5 23.5t70 61.5t50 85.5t32.5 95t17.5 90.5t5.5 73zM326 796l9 32h237l-9 -32h-237z" />
    <glyph glyph-name="omacron" unicode="&#x14d;" horiz-adv-x="461" 
d="M191 -9q-42 0 -69 12t-42.5 32.5t-22 48.5t-6.5 60q0 50 16.5 101.5t47 93.5t74 68.5t96.5 26.5q40 0 66.5 -12t42.5 -33t22 -49t6 -60q0 -48 -15.5 -99t-44.5 -93t-72.5 -69.5t-98.5 -27.5zM116 112q0 -56 19.5 -81t57.5 -25q28 0 51.5 16t41.5 42t31.5 58.5t22.5 66.5
t13 65.5t4 54.5q0 22 -3.5 42t-12 35t-23 23.5t-36.5 8.5q-27 0 -50 -15.5t-41 -41.5t-32.5 -58.5t-23.5 -66.5t-14 -66.5t-5 -57.5zM195 566l9 32h237l-9 -32h-237z" />
    <glyph glyph-name="Obreve" unicode="&#x14e;" horiz-adv-x="678" 
d="M653 411q0 -32 -6.5 -75.5t-21.5 -90.5t-40.5 -93t-64.5 -82t-92.5 -58.5t-123.5 -22.5q-62 0 -106.5 17t-73 50t-42 81t-13.5 110q0 38 7.5 84.5t24.5 94t44 92t65.5 78.5t89.5 55t117 21q115 0 175.5 -66.5t60.5 -194.5zM575 436q0 42 -8.5 81t-28 69t-50 48t-73.5 18
q-50 0 -89 -22.5t-69 -58.5t-51 -82t-34 -93t-19 -91.5t-6 -77.5q0 -41 7.5 -80.5t26 -70.5t49 -50t76.5 -19q53 0 93.5 23.5t70 61.5t50 85.5t32.5 95t17.5 90.5t5.5 73zM458 788q48 0 78 23.5t50 54.5l9 -4q-5 -11 -14.5 -29.5t-27 -36t-42.5 -30t-61 -12.5
q-35 0 -55.5 13t-31.5 31t-14.5 36.5t-3.5 29.5l10 2q6 -31 30.5 -54.5t72.5 -23.5z" />
    <glyph glyph-name="obreve" unicode="&#x14f;" horiz-adv-x="461" 
d="M191 -9q-42 0 -69 12t-42.5 32.5t-22 48.5t-6.5 60q0 50 16.5 101.5t47 93.5t74 68.5t96.5 26.5q40 0 66.5 -12t42.5 -33t22 -49t6 -60q0 -48 -15.5 -99t-44.5 -93t-72.5 -69.5t-98.5 -27.5zM116 112q0 -56 19.5 -81t57.5 -25q28 0 51.5 16t41.5 42t31.5 58.5t22.5 66.5
t13 65.5t4 54.5q0 22 -3.5 42t-12 35t-23 23.5t-36.5 8.5q-27 0 -50 -15.5t-41 -41.5t-32.5 -58.5t-23.5 -66.5t-14 -66.5t-5 -57.5zM329 558q48 0 78 23.5t50 54.5l9 -4q-5 -11 -14.5 -29.5t-27 -36t-42.5 -30t-61 -12.5q-35 0 -55.5 13t-31.5 31t-14.5 36.5t-3.5 29.5
l10 2q6 -31 30.5 -54.5t72.5 -23.5z" />
    <glyph glyph-name="Ohungarumlaut" unicode="&#x150;" horiz-adv-x="678" 
d="M653 411q0 -32 -6.5 -75.5t-21.5 -90.5t-40.5 -93t-64.5 -82t-92.5 -58.5t-123.5 -22.5q-62 0 -106.5 17t-73 50t-42 81t-13.5 110q0 38 7.5 84.5t24.5 94t44 92t65.5 78.5t89.5 55t117 21q115 0 175.5 -66.5t60.5 -194.5zM575 436q0 42 -8.5 81t-28 69t-50 48t-73.5 18
q-50 0 -89 -22.5t-69 -58.5t-51 -82t-34 -93t-19 -91.5t-6 -77.5q0 -41 7.5 -80.5t26 -70.5t49 -50t76.5 -19q53 0 93.5 23.5t70 61.5t50 85.5t32.5 95t17.5 90.5t5.5 73zM460 871l12 10t17 5q10 0 19.5 -6.5t9.5 -20.5q0 -13 -7 -20t-16 -12l-173 -90l-4 7zM590 871l12 10
t17 5q10 0 19.5 -6.5t9.5 -20.5q0 -13 -7 -20t-16 -12l-173 -90l-4 7z" />
    <glyph glyph-name="ohungarumlaut" unicode="&#x151;" horiz-adv-x="461" 
d="M191 -9q-42 0 -69 12t-42.5 32.5t-22 48.5t-6.5 60q0 50 16.5 101.5t47 93.5t74 68.5t96.5 26.5q40 0 66.5 -12t42.5 -33t22 -49t6 -60q0 -48 -15.5 -99t-44.5 -93t-72.5 -69.5t-98.5 -27.5zM116 112q0 -56 19.5 -81t57.5 -25q28 0 51.5 16t41.5 42t31.5 58.5t22.5 66.5
t13 65.5t4 54.5q0 22 -3.5 42t-12 35t-23 23.5t-36.5 8.5q-27 0 -50 -15.5t-41 -41.5t-32.5 -58.5t-23.5 -66.5t-14 -66.5t-5 -57.5zM315 641l12 10t17 5q10 0 19.5 -6.5t9.5 -20.5q0 -13 -7 -20t-16 -12l-173 -90l-4 7zM445 641l12 10t17 5q10 0 19.5 -6.5t9.5 -20.5
q0 -13 -7 -20t-16 -12l-173 -90l-4 7z" />
    <glyph glyph-name="OE" unicode="&#x152;" horiz-adv-x="879" 
d="M417 665q41 0 76 -9h275q40 0 68.5 1.5t49.5 3.5l1 -1l-15 -157h-11q0 51 -10.5 78t-34.5 40q-20 11 -47.5 14t-71.5 3h-104l-56 -289h23.5t33 0.5t34 2t26.5 3.5q15 4 26 11t20 18.5t16.5 29t15.5 42.5h12q-16 -58 -26.5 -114.5t-19.5 -117.5h-12q1 8 1 15v14
q0 34 -8 50t-31 22q-9 2 -25 3.5t-33.5 2t-32.5 1t-23 0.5l-44 -236q-2 -14 -3.5 -24t-1.5 -17q0 -11 4 -18.5t14.5 -12t28.5 -6t46 -1.5h12q53 0 87.5 7.5t58.5 24.5t41.5 45t36.5 69h10l-36 -165q-38 3 -115 3h-274q-22 -5 -45.5 -8t-49.5 -3q-62 0 -106.5 18t-73 51.5
t-42 81.5t-13.5 108q0 38 7.5 83.5t24.5 91.5t44 89.5t65.5 77t89.5 54t117 20.5zM306 7q54 0 98 25l113 577q-17 17 -42 27t-60 10q-50 0 -89 -22t-69 -57.5t-51 -80.5t-34 -91.5t-19 -90t-6 -75.5q0 -41 7.5 -80.5t26 -71t49 -51t76.5 -19.5z" />
    <glyph glyph-name="oe" unicode="&#x153;" horiz-adv-x="698" 
d="M692 352q0 -39 -20 -61t-51.5 -33.5t-71 -14.5t-78.5 -3h-56q-2 -8 -6 -33t-4 -55q0 -55 24.5 -91.5t77.5 -36.5q23 0 43 8.5t35 20t25 23t15 18.5l9 -7q-11 -18 -26 -35t-35 -30.5t-44.5 -22t-54.5 -8.5q-49 0 -80 21t-45 60q-29 -36 -68.5 -58.5t-89.5 -22.5
q-42 0 -69 12t-42.5 32.5t-22 48.5t-6.5 60q0 50 16.5 101.5t47 93.5t74 68.5t96.5 26.5q55 0 84.5 -22t41.5 -58q32 37 75 59t94 22q54 0 83 -20.5t29 -62.5zM116 112q0 -56 19.5 -81t57.5 -25q28 0 51.5 16t41.5 42t31.5 58.5t22.5 66.5t13 65.5t4 54.5q0 22 -3.5 42
t-12 35t-23 23.5t-36.5 8.5q-27 0 -50 -15.5t-41 -41.5t-32.5 -58.5t-23.5 -66.5t-14 -66.5t-5 -57.5zM635 361q0 30 -16.5 45t-43.5 15q-24 0 -47.5 -12t-44.5 -33.5t-38 -52.5t-27 -69h31q42 0 76 5.5t58.5 18t38 33t13.5 50.5z" />
    <glyph glyph-name="Racute" unicode="&#x154;" horiz-adv-x="577" 
d="M213 346h38q28 0 49 1.5t36.5 4.5t28.5 7.5t25 11.5q36 18 56.5 54t20.5 94q0 34 -10 56.5t-29.5 36t-47.5 19.5t-63 6q-14 0 -23 -0.5t-15 -0.5q-7 -1 -11 -1zM182 561q4 20 4 35q0 32 -19.5 41t-51.5 12l1 9q10 0 24.5 -0.5t31 -1t34.5 -1t34 -0.5h26t21 0.5t20.5 0.5
h25.5q47 0 76.5 -4t55.5 -14q36 -14 57.5 -41.5t21.5 -74.5q0 -41 -14 -73.5t-40 -55.5t-66 -39t-86 -19l-2 -3q29 -3 48 -16.5t32 -35t20 -49t12 -56.5q7 -44 14.5 -75.5t19 -51.5t29 -30.5t44.5 -12.5l-2 -8q-23 -3 -54 -3q-60 0 -84 27q-17 19 -25 52.5t-16 87.5l-6 40
t-7.5 38t-11.5 33.5t-18 27.5q-11 11 -26 18t-37 7h-60l-44 -229q-4 -20 -4 -36q0 -31 20.5 -39.5t59.5 -11.5l-1 -9h-25t-26 0.5t-31 0.5h-40q-30 0 -64 -0.5t-60 -0.5l1 9q20 2 35.5 5.5t27.5 12.5t20.5 25t13.5 44zM415 871l12 10t17 5q10 0 19.5 -6.5t9.5 -20.5
q0 -13 -7 -20t-16 -12l-173 -90l-4 7z" />
    <glyph glyph-name="racute" unicode="&#x155;" horiz-adv-x="335" 
d="M60 0q1 3 4 17t7.5 35.5t10 48t10.5 54.5l34 177q2 8 3 16t1 13q0 29 -22 39t-54 14l2 9q46 1 73 2t42 2t21 1h11l-44 -188h8q10 31 24.5 65t33 62t41 46t48.5 18q20 0 32 -11t12 -29q0 -22 -12.5 -32.5t-27.5 -10.5q-10 0 -16.5 4.5t-12 10l-10 10t-10.5 4.5
q-17 0 -39.5 -34.5t-44.5 -91.5q-15 -38 -28.5 -84.5t-24.5 -95.5l-6 -28t-8 -43h-58zM288 641l12 10t17 5q10 0 19.5 -6.5t9.5 -20.5q0 -13 -7 -20t-16 -12l-173 -90l-4 7z" />
    <glyph glyph-name="Rcommaaccent" unicode="&#x156;" horiz-adv-x="577" 
d="M213 346h38q28 0 49 1.5t36.5 4.5t28.5 7.5t25 11.5q36 18 56.5 54t20.5 94q0 34 -10 56.5t-29.5 36t-47.5 19.5t-63 6q-14 0 -23 -0.5t-15 -0.5q-7 -1 -11 -1zM182 561q4 20 4 35q0 32 -19.5 41t-51.5 12l1 9q10 0 24.5 -0.5t31 -1t34.5 -1t34 -0.5h26t21 0.5t20.5 0.5
h25.5q47 0 76.5 -4t55.5 -14q36 -14 57.5 -41.5t21.5 -74.5q0 -41 -14 -73.5t-40 -55.5t-66 -39t-86 -19l-2 -3q29 -3 48 -16.5t32 -35t20 -49t12 -56.5q7 -44 14.5 -75.5t19 -51.5t29 -30.5t44.5 -12.5l-2 -8q-23 -3 -54 -3q-60 0 -84 27q-17 19 -25 52.5t-16 87.5l-6 40
t-7.5 38t-11.5 33.5t-18 27.5q-11 11 -26 18t-37 7h-60l-44 -229q-4 -20 -4 -36q0 -31 20.5 -39.5t59.5 -11.5l-1 -9h-25t-26 0.5t-31 0.5h-40q-30 0 -64 -0.5t-60 -0.5l1 9q20 2 35.5 5.5t27.5 12.5t20.5 25t13.5 44zM195 -221q24 12 44 35.5t21 54.5h-1q-2 -1 -6.5 -2.5
t-12.5 -1.5q-18 0 -30.5 11t-12.5 33q0 20 13 31.5t32 11.5q27 0 40.5 -18.5t13.5 -43.5q0 -20 -8 -39t-21 -35t-31 -28t-37 -18z" />
    <glyph glyph-name="rcommaaccent" unicode="&#x157;" horiz-adv-x="335" 
d="M60 0q1 3 4 17t7.5 35.5t10 48t10.5 54.5l34 177q2 8 3 16t1 13q0 29 -22 39t-54 14l2 9q46 1 73 2t42 2t21 1h11l-44 -188h8q10 31 24.5 65t33 62t41 46t48.5 18q20 0 32 -11t12 -29q0 -22 -12.5 -32.5t-27.5 -10.5q-10 0 -16.5 4.5t-12 10l-10 10t-10.5 4.5
q-17 0 -39.5 -34.5t-44.5 -91.5q-15 -38 -28.5 -84.5t-24.5 -95.5l-6 -28t-8 -43h-58zM36 -221q24 12 44 35.5t21 54.5h-1q-2 -1 -6.5 -2.5t-12.5 -1.5q-18 0 -30.5 11t-12.5 33q0 20 13 31.5t32 11.5q27 0 40.5 -18.5t13.5 -43.5q0 -20 -8 -39t-21 -35t-31 -28t-37 -18z
" />
    <glyph glyph-name="Rcaron" unicode="&#x158;" horiz-adv-x="577" 
d="M213 346h38q28 0 49 1.5t36.5 4.5t28.5 7.5t25 11.5q36 18 56.5 54t20.5 94q0 34 -10 56.5t-29.5 36t-47.5 19.5t-63 6q-14 0 -23 -0.5t-15 -0.5q-7 -1 -11 -1zM182 561q4 20 4 35q0 32 -19.5 41t-51.5 12l1 9q10 0 24.5 -0.5t31 -1t34.5 -1t34 -0.5h26t21 0.5t20.5 0.5
h25.5q47 0 76.5 -4t55.5 -14q36 -14 57.5 -41.5t21.5 -74.5q0 -41 -14 -73.5t-40 -55.5t-66 -39t-86 -19l-2 -3q29 -3 48 -16.5t32 -35t20 -49t12 -56.5q7 -44 14.5 -75.5t19 -51.5t29 -30.5t44.5 -12.5l-2 -8q-23 -3 -54 -3q-60 0 -84 27q-17 19 -25 52.5t-16 87.5l-6 40
t-7.5 38t-11.5 33.5t-18 27.5q-11 11 -26 18t-37 7h-60l-44 -229q-4 -20 -4 -36q0 -31 20.5 -39.5t59.5 -11.5l-1 -9h-25t-26 0.5t-31 0.5h-40q-30 0 -64 -0.5t-60 -0.5l1 9q20 2 35.5 5.5t27.5 12.5t20.5 25t13.5 44zM471 894l5 -6l-120 -158h-16l-61 158l7 5l71 -102z" />
    <glyph glyph-name="rcaron" unicode="&#x159;" horiz-adv-x="335" 
d="M60 0q1 3 4 17t7.5 35.5t10 48t10.5 54.5l34 177q2 8 3 16t1 13q0 29 -22 39t-54 14l2 9q46 1 73 2t42 2t21 1h11l-44 -188h8q10 31 24.5 65t33 62t41 46t48.5 18q20 0 32 -11t12 -29q0 -22 -12.5 -32.5t-27.5 -10.5q-10 0 -16.5 4.5t-12 10l-10 10t-10.5 4.5
q-17 0 -39.5 -34.5t-44.5 -91.5q-15 -38 -28.5 -84.5t-24.5 -95.5l-6 -28t-8 -43h-58zM339 664l5 -6l-120 -158h-16l-61 158l7 5l71 -102z" />
    <glyph glyph-name="Sacute" unicode="&#x15a;" horiz-adv-x="512" 
d="M453 479v4q0 38 -7 68.5t-22.5 52t-40.5 33t-62 11.5q-61 0 -98.5 -33.5t-37.5 -92.5q0 -28 7 -47.5t21 -36t35 -32t50 -34.5l36 -24q22 -15 44 -31t39 -36t28 -45.5t11 -58.5q0 -47 -18 -82t-49.5 -58.5t-76 -35.5t-96.5 -12q-42 0 -75.5 7.5t-57 16.5t-36 16.5
t-12.5 8.5l30 156h13q-1 -6 -1 -11v-16q0 -45 10 -75t28.5 -49t45 -27t59.5 -8q37 0 66.5 11t50.5 30.5t32 47t11 60.5q0 27 -8.5 47t-23.5 36.5t-34.5 31t-41.5 28.5l-36 23q-28 18 -51 36t-39.5 38.5t-25.5 45t-9 55.5q0 40 16.5 72t45.5 53.5t68 33t83 11.5q50 0 84 -9.5
t61 -19.5q1 -2 4 1q1 1 2 1l7 -4l-16 -158h-13zM425 871l12 10t17 5q10 0 19.5 -6.5t9.5 -20.5q0 -13 -7 -20t-16 -12l-173 -90l-4 7z" />
    <glyph glyph-name="sacute" unicode="&#x15b;" horiz-adv-x="351" 
d="M312 317h-11v6q0 19 -4 36.5t-13.5 30.5t-25.5 20.5t-39 7.5q-39 0 -63 -24t-24 -57q0 -28 15.5 -48.5t42.5 -37.5l19 -12q18 -11 34.5 -23t30 -26t21.5 -32t8 -41q0 -32 -13 -56t-36 -40t-54 -23.5t-67 -7.5q-43 0 -74 9.5t-43 17.5l20 98h12v-9q0 -45 19.5 -72.5
t69.5 -27.5q49 0 79 26t30 65q0 18 -6.5 31.5t-17.5 25t-24.5 20.5t-27.5 18l-21 14q-13 9 -25.5 19t-22.5 23t-16.5 30t-6.5 39q0 28 11.5 50t31 37t46.5 22.5t57 7.5q32 0 61 -8t44 -17zM306 641l12 10t17 5q10 0 19.5 -6.5t9.5 -20.5q0 -13 -7 -20t-16 -12l-173 -90l-4 7
z" />
    <glyph glyph-name="Scircumflex" unicode="&#x15c;" horiz-adv-x="512" 
d="M453 479v4q0 38 -7 68.5t-22.5 52t-40.5 33t-62 11.5q-61 0 -98.5 -33.5t-37.5 -92.5q0 -28 7 -47.5t21 -36t35 -32t50 -34.5l36 -24q22 -15 44 -31t39 -36t28 -45.5t11 -58.5q0 -47 -18 -82t-49.5 -58.5t-76 -35.5t-96.5 -12q-42 0 -75.5 7.5t-57 16.5t-36 16.5
t-12.5 8.5l30 156h13q-1 -6 -1 -11v-16q0 -45 10 -75t28.5 -49t45 -27t59.5 -8q37 0 66.5 11t50.5 30.5t32 47t11 60.5q0 27 -8.5 47t-23.5 36.5t-34.5 31t-41.5 28.5l-36 23q-28 18 -51 36t-39.5 38.5t-25.5 45t-9 55.5q0 40 16.5 72t45.5 53.5t68 33t83 11.5q50 0 84 -9.5
t61 -19.5q1 -2 4 1q1 1 2 1l7 -4l-16 -158h-13zM252 732l-5 6l120 158h16l61 -158l-7 -5l-71 102z" />
    <glyph glyph-name="scircumflex" unicode="&#x15d;" horiz-adv-x="351" 
d="M312 317h-11v6q0 19 -4 36.5t-13.5 30.5t-25.5 20.5t-39 7.5q-39 0 -63 -24t-24 -57q0 -28 15.5 -48.5t42.5 -37.5l19 -12q18 -11 34.5 -23t30 -26t21.5 -32t8 -41q0 -32 -13 -56t-36 -40t-54 -23.5t-67 -7.5q-43 0 -74 9.5t-43 17.5l20 98h12v-9q0 -45 19.5 -72.5
t69.5 -27.5q49 0 79 26t30 65q0 18 -6.5 31.5t-17.5 25t-24.5 20.5t-27.5 18l-21 14q-13 9 -25.5 19t-22.5 23t-16.5 30t-6.5 39q0 28 11.5 50t31 37t46.5 22.5t57 7.5q32 0 61 -8t44 -17zM160 502l-5 6l120 158h16l61 -158l-7 -5l-71 102z" />
    <glyph glyph-name="Scedilla" unicode="&#x15e;" horiz-adv-x="512" 
d="M130 -196q10 -5 22 -7t23 -2q35 0 58 19.5t23 55.5q0 32 -15 45.5t-40 13.5q-14 0 -26 -5.5t-18 -11.5l-6 6l58 71q-41 1 -73 8.5t-54.5 16t-34.5 16t-12 8.5l30 156h13q-1 -6 -1 -11v-16q0 -45 10 -75t28.5 -49t45 -27t59.5 -8q37 0 66.5 11t50.5 30.5t32 47t11 60.5
q0 27 -8.5 47t-23.5 36.5t-34.5 31t-41.5 28.5l-36 23q-28 18 -51 36t-39.5 38.5t-25.5 45t-9 55.5q0 40 16.5 72t45.5 53.5t68 33t83 11.5q50 0 84 -9.5t61 -19.5q1 -2 4 1q1 1 2 1l7 -4l-16 -158h-13v4q0 38 -7 68.5t-22.5 52t-40.5 33t-62 11.5q-61 0 -98.5 -33.5
t-37.5 -92.5q0 -28 7 -47.5t21 -36t35 -32t50 -34.5l36 -24q22 -15 44 -31t39 -36t28 -45.5t11 -58.5q0 -46 -17.5 -81t-48 -58.5t-73.5 -35.5t-94 -13l-47 -53h1q3 3 14.5 7.5t28.5 4.5q34 0 56 -20t22 -55q0 -22 -8.5 -39t-23 -28.5t-33.5 -17.5t-39 -6q-22 0 -37 4
t-29 12z" />
    <glyph glyph-name="scedilla" unicode="&#x15f;" horiz-adv-x="351" 
d="M41 -196q10 -5 22 -7t23 -2q35 0 58 19.5t23 55.5q0 32 -15 45.5t-40 13.5q-14 0 -26 -5.5t-18 -11.5l-6 6l59 72q-38 2 -66 10.5t-39 16.5l20 98h12v-9q0 -45 19.5 -72.5t69.5 -27.5q49 0 79 26t30 65q0 18 -6.5 31.5t-17.5 25t-24.5 20.5t-27.5 18l-21 14
q-13 9 -25.5 19t-22.5 23t-16.5 30t-6.5 39q0 28 11.5 50t31 37t46.5 22.5t57 7.5q32 0 61 -8t44 -17l-17 -92h-11v6q0 19 -4 36.5t-13.5 30.5t-25.5 20.5t-39 7.5q-39 0 -63 -24t-24 -57q0 -28 15.5 -48.5t42.5 -37.5l19 -12q18 -11 34.5 -23t30 -26t21.5 -32t8 -41
q0 -32 -13 -56t-36 -39.5t-53.5 -23.5t-66.5 -8l-47 -54h1q3 3 14.5 7.5t28.5 4.5q34 0 56 -20t22 -55q0 -22 -8.5 -39t-23 -28.5t-33.5 -17.5t-39 -6q-22 0 -37 4t-29 12z" />
    <glyph glyph-name="Scaron" unicode="&#x160;" horiz-adv-x="517" 
d="M453 479v4q0 38 -7 68.5t-22.5 52t-40.5 33t-62 11.5q-61 0 -98.5 -33.5t-37.5 -92.5q0 -28 7 -47.5t21 -36t35 -32t50 -34.5l36 -24q22 -15 44 -31t39 -36t28 -45.5t11 -58.5q0 -47 -18 -82t-49.5 -58.5t-76 -35.5t-96.5 -12q-42 0 -75.5 7.5t-57 16.5t-36 16.5
t-12.5 8.5l30 156h13q-1 -6 -1 -11v-16q0 -45 10 -75t28.5 -49t45 -27t59.5 -8q37 0 66.5 11t50.5 30.5t32 47t11 60.5q0 27 -8.5 47t-23.5 36.5t-34.5 31t-41.5 28.5l-36 23q-28 18 -51 36t-39.5 38.5t-25.5 45t-9 55.5q0 40 16.5 72t45.5 53.5t68 33t83 11.5q50 0 84 -9.5
t61 -19.5q1 -2 4 1q1 1 2 1l7 -4l-16 -158h-13zM463 894l5 -6l-120 -158h-16l-61 158l7 5l71 -102z" />
    <glyph glyph-name="scaron" unicode="&#x161;" horiz-adv-x="351" 
d="M312 317h-11v6q0 19 -4 36.5t-13.5 30.5t-25.5 20.5t-39 7.5q-39 0 -63 -24t-24 -57q0 -28 15.5 -48.5t42.5 -37.5l19 -12q18 -11 34.5 -23t30 -26t21.5 -32t8 -41q0 -32 -13 -56t-36 -40t-54 -23.5t-67 -7.5q-43 0 -74 9.5t-43 17.5l20 98h12v-9q0 -45 19.5 -72.5
t69.5 -27.5q49 0 79 26t30 65q0 18 -6.5 31.5t-17.5 25t-24.5 20.5t-27.5 18l-21 14q-13 9 -25.5 19t-22.5 23t-16.5 30t-6.5 39q0 28 11.5 50t31 37t46.5 22.5t57 7.5q32 0 61 -8t44 -17zM362 664l5 -6l-120 -158h-16l-61 158l7 5l71 -102z" />
    <glyph glyph-name="Tcommaaccent" unicode="&#x162;" horiz-adv-x="563" 
d="M296 96q-4 -23 -4 -36q0 -31 21.5 -40t63.5 -11l-1 -9q-26 0 -53.5 0.5t-73.5 0.5h-33.5t-37.5 -0.5t-36.5 -0.5h-30.5l1 9q25 2 43.5 5.5t31.5 12.5t22 25t14 44l106 544h-14q-46 0 -82 -5.5t-64 -20.5t-49.5 -43t-37.5 -73h-11l52 162l1 1q20 -2 56.5 -3.5t77.5 -1.5
h238q41 0 69 1.5t49 3.5l1 -1l-15 -162h-11v12q0 42 -10 68t-31 39.5t-53.5 18t-77.5 4.5h-15zM180 -221q24 12 44 35.5t21 54.5h-1q-2 -1 -6.5 -2.5t-12.5 -1.5q-18 0 -30.5 11t-12.5 33q0 20 13 31.5t32 11.5q27 0 40.5 -18.5t13.5 -43.5q0 -20 -8 -39t-21 -35t-31 -28
t-37 -18z" />
    <glyph glyph-name="tcommaaccent" unicode="&#x163;" horiz-adv-x="266" 
d="M71 426l65 -1l11 45q17 4 34 19t26 42h11q-4 -17 -6.5 -29t-5 -23.5t-5.5 -24t-6 -29.5l106 1l-5 -19h-104l-50 -245q-7 -32 -13 -61.5t-6 -43.5q0 -23 16 -23q7 0 17.5 5t21.5 13t22.5 18.5t21.5 21.5l7 -7q-11 -14 -26 -30.5t-32.5 -30.5t-37.5 -23.5t-40 -9.5
q-19 0 -26.5 10t-7.5 28q0 11 2.5 29.5t7.5 41.5l63 307h-65zM43 -221q24 12 44 35.5t21 54.5h-1q-2 -1 -6.5 -2.5t-12.5 -1.5q-18 0 -30.5 11t-12.5 33q0 20 13 31.5t32 11.5q27 0 40.5 -18.5t13.5 -43.5q0 -20 -8 -39t-21 -35t-31 -28t-37 -18z" />
    <glyph glyph-name="Tcaron" unicode="&#x164;" horiz-adv-x="563" 
d="M296 96q-4 -23 -4 -36q0 -31 21.5 -40t63.5 -11l-1 -9q-26 0 -53.5 0.5t-73.5 0.5h-33.5t-37.5 -0.5t-36.5 -0.5h-30.5l1 9q25 2 43.5 5.5t31.5 12.5t22 25t14 44l106 544h-14q-46 0 -82 -5.5t-64 -20.5t-49.5 -43t-37.5 -73h-11l52 162l1 1q20 -2 56.5 -3.5t77.5 -1.5
h238q41 0 69 1.5t49 3.5l1 -1l-15 -162h-11v12q0 42 -10 68t-31 39.5t-53.5 18t-77.5 4.5h-15zM502 894l5 -6l-120 -158h-16l-61 158l7 5l71 -102z" />
    <glyph glyph-name="tcaron" unicode="&#x165;" horiz-adv-x="342" 
d="M71 426l65 -1l11 45q17 4 34 19t26 42h11q-4 -17 -6.5 -29t-5 -23.5t-5.5 -24t-6 -29.5l106 1l-5 -19h-104l-50 -245q-7 -32 -13 -61.5t-6 -43.5q0 -23 16 -23q7 0 17.5 5t21.5 13t22.5 18.5t21.5 21.5l7 -7q-11 -14 -26 -30.5t-32.5 -30.5t-37.5 -23.5t-40 -9.5
q-19 0 -26.5 10t-7.5 28q0 11 2.5 29.5t7.5 41.5l63 307h-65zM392 629q0 -24 -10 -48.5t-27 -45.5t-38.5 -38t-44.5 -27l-4 7q16 10 32.5 24.5t29.5 32t21 35.5t8 35v4q-2 -2 -9 -4.5t-19 -2.5q-20 0 -33.5 12t-13.5 35q0 22 14 35t36 13q29 0 43.5 -19.5t14.5 -47.5z" />
    <glyph glyph-name="Tbar" unicode="&#x166;" horiz-adv-x="563" 
d="M346 352h95l-3 -15h-95l-47 -241q-4 -23 -4 -36q0 -31 21.5 -40t63.5 -11l-1 -9q-26 0 -53.5 0.5t-73.5 0.5h-33.5t-37.5 -0.5t-36.5 -0.5h-30.5l1 9q25 2 43.5 5.5t31.5 12.5t22 25t14 44l47 241h-90l3 15h90l56 288h-14q-46 0 -82 -5.5t-64 -20.5t-49.5 -43t-37.5 -73
h-11l52 162l1 1q20 -2 56.5 -3.5t77.5 -1.5h238q41 0 69 1.5t49 3.5l1 -1l-15 -162h-11v12q0 42 -10 68t-31 39.5t-53.5 18t-77.5 4.5h-15z" />
    <glyph glyph-name="tbar" unicode="&#x167;" horiz-adv-x="267" 
d="M72 426l65 -1l11 45q17 4 34 19t26 42h11q-4 -17 -6.5 -29t-5 -23.5t-5.5 -24t-6 -29.5l106 1l-5 -19h-104l-18 -85h90l-4 -15h-89l-29 -145q-7 -32 -13 -61.5t-6 -43.5q0 -23 16 -23q7 0 17.5 5t21.5 13t22.5 18.5t21.5 21.5l7 -7q-11 -14 -26 -30.5t-32.5 -30.5
t-37.5 -23.5t-40 -9.5q-19 0 -26.5 10t-7.5 28q0 11 2.5 29.5t7.5 41.5l42 207h-63l4 15h62l18 85h-65z" />
    <glyph glyph-name="Utilde" unicode="&#x168;" horiz-adv-x="634" 
d="M582 561q2 12 3 20t1 16q0 31 -19.5 40t-53.5 12l1 9q19 -1 43 -1.5t56 -0.5q36 0 60.5 0.5t43.5 1.5l-1 -9q-20 -2 -36 -5.5t-28 -12.5t-20.5 -25t-13.5 -44l-70 -366q-8 -39 -19 -76.5t-36 -66t-69 -46t-117 -17.5q-94 0 -144.5 39.5t-50.5 120.5q0 22 3 45.5t7 44.5
l61 321q2 12 3 20t1 16q0 31 -19.5 40t-51.5 12l2 9q19 0 49 -1t62 -1q36 0 72 1t55 1l-2 -9q-20 -2 -36 -5.5t-28 -12.5t-20 -25t-14 -44l-63 -325q-5 -27 -8 -50t-3 -43q0 -54 33 -89.5t105 -35.5q56 0 90.5 14.5t55 39.5t30 57.5t16.5 67.5zM387 851q10 0 20 -2t30 -10
l28 -12q14 -6 26.5 -11t23.5 -5q18 0 31 7.5t24 27.5l7 -3q-12 -39 -31.5 -52t-45.5 -13q-11 0 -21.5 2.5t-30.5 10.5l-28 12q-14 6 -26.5 10.5t-23.5 4.5q-17 0 -32.5 -12.5t-26.5 -32.5l-7 3q12 39 33 57t50 18z" />
    <glyph glyph-name="utilde" unicode="&#x169;" horiz-adv-x="494" 
d="M138 110q-2 -9 -3.5 -21.5t-1.5 -20.5q0 -16 7 -26.5t28 -10.5q31 0 59.5 28t52.5 70t41.5 91.5t26.5 93.5l23 112h60q-6 -24 -11 -50q-5 -23 -11 -50.5t-11 -56.5q-5 -26 -11 -54t-11 -53q-6 -31 -11.5 -59.5t-5.5 -44.5q0 -11 3 -17.5t11 -6.5q9 0 19.5 5.5t21.5 14
t22 18.5t20 20l7 -7q-11 -14 -25.5 -30.5t-32 -30.5t-35.5 -23.5t-36 -9.5q-36 0 -36 40q0 11 2.5 27.5t6 36t8 40t9.5 38.5h-6q-11 -29 -29.5 -61t-43 -59t-54 -44.5t-62.5 -17.5t-46 14.5t-13 46.5q0 17 3.5 35t7.5 36l45 220q1 5 1.5 9.5t0.5 9.5q0 29 -22.5 38.5
t-54.5 13.5l2 9q48 1 76 2t43.5 2t22 1h10.5q-7 -30 -13 -54.5t-10.5 -44.5t-8.5 -38t-7 -35zM257 621q10 0 20 -2t30 -10l28 -12q14 -6 26.5 -11t23.5 -5q18 0 31 7.5t24 27.5l7 -3q-12 -39 -31.5 -52t-45.5 -13q-11 0 -21.5 2.5t-30.5 10.5l-28 12q-14 6 -26.5 10.5
t-23.5 4.5q-17 0 -32.5 -12.5t-26.5 -32.5l-7 3q12 39 33 57t50 18z" />
    <glyph glyph-name="Umacron" unicode="&#x16a;" horiz-adv-x="634" 
d="M582 561q2 12 3 20t1 16q0 31 -19.5 40t-53.5 12l1 9q19 -1 43 -1.5t56 -0.5q36 0 60.5 0.5t43.5 1.5l-1 -9q-20 -2 -36 -5.5t-28 -12.5t-20.5 -25t-13.5 -44l-70 -366q-8 -39 -19 -76.5t-36 -66t-69 -46t-117 -17.5q-94 0 -144.5 39.5t-50.5 120.5q0 22 3 45.5t7 44.5
l61 321q2 12 3 20t1 16q0 31 -19.5 40t-51.5 12l2 9q19 0 49 -1t62 -1q36 0 72 1t55 1l-2 -9q-20 -2 -36 -5.5t-28 -12.5t-20 -25t-14 -44l-63 -325q-5 -27 -8 -50t-3 -43q0 -54 33 -89.5t105 -35.5q56 0 90.5 14.5t55 39.5t30 57.5t16.5 67.5zM323 796l9 32h237l-9 -32
h-237z" />
    <glyph glyph-name="umacron" unicode="&#x16b;" horiz-adv-x="494" 
d="M138 110q-2 -9 -3.5 -21.5t-1.5 -20.5q0 -16 7 -26.5t28 -10.5q31 0 59.5 28t52.5 70t41.5 91.5t26.5 93.5l23 112h60q-6 -24 -11 -50q-5 -23 -11 -50.5t-11 -56.5q-5 -26 -11 -54t-11 -53q-6 -31 -11.5 -59.5t-5.5 -44.5q0 -11 3 -17.5t11 -6.5q9 0 19.5 5.5t21.5 14
t22 18.5t20 20l7 -7q-11 -14 -25.5 -30.5t-32 -30.5t-35.5 -23.5t-36 -9.5q-36 0 -36 40q0 11 2.5 27.5t6 36t8 40t9.5 38.5h-6q-11 -29 -29.5 -61t-43 -59t-54 -44.5t-62.5 -17.5t-46 14.5t-13 46.5q0 17 3.5 35t7.5 36l45 220q1 5 1.5 9.5t0.5 9.5q0 29 -22.5 38.5
t-54.5 13.5l2 9q48 1 76 2t43.5 2t22 1h10.5q-7 -30 -13 -54.5t-10.5 -44.5t-8.5 -38t-7 -35zM192 566l9 32h237l-9 -32h-237z" />
    <glyph glyph-name="Ubreve" unicode="&#x16c;" horiz-adv-x="634" 
d="M582 561q2 12 3 20t1 16q0 31 -19.5 40t-53.5 12l1 9q19 -1 43 -1.5t56 -0.5q36 0 60.5 0.5t43.5 1.5l-1 -9q-20 -2 -36 -5.5t-28 -12.5t-20.5 -25t-13.5 -44l-70 -366q-8 -39 -19 -76.5t-36 -66t-69 -46t-117 -17.5q-94 0 -144.5 39.5t-50.5 120.5q0 22 3 45.5t7 44.5
l61 321q2 12 3 20t1 16q0 31 -19.5 40t-51.5 12l2 9q19 0 49 -1t62 -1q36 0 72 1t55 1l-2 -9q-20 -2 -36 -5.5t-28 -12.5t-20 -25t-14 -44l-63 -325q-5 -27 -8 -50t-3 -43q0 -54 33 -89.5t105 -35.5q56 0 90.5 14.5t55 39.5t30 57.5t16.5 67.5zM441 788q48 0 78 23.5
t50 54.5l9 -4q-5 -11 -14.5 -29.5t-27 -36t-42.5 -30t-61 -12.5q-35 0 -55.5 13t-31.5 31t-14.5 36.5t-3.5 29.5l10 2q6 -31 30.5 -54.5t72.5 -23.5z" />
    <glyph glyph-name="ubreve" unicode="&#x16d;" horiz-adv-x="494" 
d="M138 110q-2 -9 -3.5 -21.5t-1.5 -20.5q0 -16 7 -26.5t28 -10.5q31 0 59.5 28t52.5 70t41.5 91.5t26.5 93.5l23 112h60q-6 -24 -11 -50q-5 -23 -11 -50.5t-11 -56.5q-5 -26 -11 -54t-11 -53q-6 -31 -11.5 -59.5t-5.5 -44.5q0 -11 3 -17.5t11 -6.5q9 0 19.5 5.5t21.5 14
t22 18.5t20 20l7 -7q-11 -14 -25.5 -30.5t-32 -30.5t-35.5 -23.5t-36 -9.5q-36 0 -36 40q0 11 2.5 27.5t6 36t8 40t9.5 38.5h-6q-11 -29 -29.5 -61t-43 -59t-54 -44.5t-62.5 -17.5t-46 14.5t-13 46.5q0 17 3.5 35t7.5 36l45 220q1 5 1.5 9.5t0.5 9.5q0 29 -22.5 38.5
t-54.5 13.5l2 9q48 1 76 2t43.5 2t22 1h10.5q-7 -30 -13 -54.5t-10.5 -44.5t-8.5 -38t-7 -35zM293 558q48 0 78 23.5t50 54.5l9 -4q-5 -11 -14.5 -29.5t-27 -36t-42.5 -30t-61 -12.5q-35 0 -55.5 13t-31.5 31t-14.5 36.5t-3.5 29.5l10 2q6 -31 30.5 -54.5t72.5 -23.5z" />
    <glyph glyph-name="Uring" unicode="&#x16e;" horiz-adv-x="634" 
d="M582 561q2 12 3 20t1 16q0 31 -19.5 40t-53.5 12l1 9q19 -1 43 -1.5t56 -0.5q36 0 60.5 0.5t43.5 1.5l-1 -9q-20 -2 -36 -5.5t-28 -12.5t-20.5 -25t-13.5 -44l-70 -366q-8 -39 -19 -76.5t-36 -66t-69 -46t-117 -17.5q-94 0 -144.5 39.5t-50.5 120.5q0 22 3 45.5t7 44.5
l61 321q2 12 3 20t1 16q0 31 -19.5 40t-51.5 12l2 9q19 0 49 -1t62 -1q36 0 72 1t55 1l-2 -9q-20 -2 -36 -5.5t-28 -12.5t-20 -25t-14 -44l-63 -325q-5 -27 -8 -50t-3 -43q0 -54 33 -89.5t105 -35.5q56 0 90.5 14.5t55 39.5t30 57.5t16.5 67.5zM526 804q0 -35 -23.5 -57
t-58.5 -22q-34 0 -57.5 22t-23.5 57q0 34 23.5 56t57.5 22t58 -22t24 -56zM501 804q0 26 -16 42t-41 16q-23 0 -39.5 -16t-16.5 -42t16.5 -42.5t39.5 -16.5q25 0 41 16.5t16 42.5z" />
    <glyph glyph-name="uring" unicode="&#x16f;" horiz-adv-x="494" 
d="M138 110q-2 -9 -3.5 -21.5t-1.5 -20.5q0 -16 7 -26.5t28 -10.5q31 0 59.5 28t52.5 70t41.5 91.5t26.5 93.5l23 112h60q-6 -24 -11 -50q-5 -23 -11 -50.5t-11 -56.5q-5 -26 -11 -54t-11 -53q-6 -31 -11.5 -59.5t-5.5 -44.5q0 -11 3 -17.5t11 -6.5q9 0 19.5 5.5t21.5 14
t22 18.5t20 20l7 -7q-11 -14 -25.5 -30.5t-32 -30.5t-35.5 -23.5t-36 -9.5q-36 0 -36 40q0 11 2.5 27.5t6 36t8 40t9.5 38.5h-6q-11 -29 -29.5 -61t-43 -59t-54 -44.5t-62.5 -17.5t-46 14.5t-13 46.5q0 17 3.5 35t7.5 36l45 220q1 5 1.5 9.5t0.5 9.5q0 29 -22.5 38.5
t-54.5 13.5l2 9q48 1 76 2t43.5 2t22 1h10.5q-7 -30 -13 -54.5t-10.5 -44.5t-8.5 -38t-7 -35zM394 574q0 -35 -23.5 -57t-58.5 -22q-34 0 -57.5 22t-23.5 57q0 34 23.5 56t57.5 22t58 -22t24 -56zM369 574q0 26 -16 42t-41 16q-23 0 -39.5 -16t-16.5 -42t16.5 -42.5
t39.5 -16.5q25 0 41 16.5t16 42.5z" />
    <glyph glyph-name="Uhungarumlaut" unicode="&#x170;" horiz-adv-x="634" 
d="M582 561q2 12 3 20t1 16q0 31 -19.5 40t-53.5 12l1 9q19 -1 43 -1.5t56 -0.5q36 0 60.5 0.5t43.5 1.5l-1 -9q-20 -2 -36 -5.5t-28 -12.5t-20.5 -25t-13.5 -44l-70 -366q-8 -39 -19 -76.5t-36 -66t-69 -46t-117 -17.5q-94 0 -144.5 39.5t-50.5 120.5q0 22 3 45.5t7 44.5
l61 321q2 12 3 20t1 16q0 31 -19.5 40t-51.5 12l2 9q19 0 49 -1t62 -1q36 0 72 1t55 1l-2 -9q-20 -2 -36 -5.5t-28 -12.5t-20 -25t-14 -44l-63 -325q-5 -27 -8 -50t-3 -43q0 -54 33 -89.5t105 -35.5q56 0 90.5 14.5t55 39.5t30 57.5t16.5 67.5zM465 871l12 10t17 5
q10 0 19.5 -6.5t9.5 -20.5q0 -13 -7 -20t-16 -12l-173 -90l-4 7zM595 871l12 10t17 5q10 0 19.5 -6.5t9.5 -20.5q0 -13 -7 -20t-16 -12l-173 -90l-4 7z" />
    <glyph glyph-name="uhungarumlaut" unicode="&#x171;" horiz-adv-x="494" 
d="M138 110q-2 -9 -3.5 -21.5t-1.5 -20.5q0 -16 7 -26.5t28 -10.5q31 0 59.5 28t52.5 70t41.5 91.5t26.5 93.5l23 112h60q-6 -24 -11 -50q-5 -23 -11 -50.5t-11 -56.5q-5 -26 -11 -54t-11 -53q-6 -31 -11.5 -59.5t-5.5 -44.5q0 -11 3 -17.5t11 -6.5q9 0 19.5 5.5t21.5 14
t22 18.5t20 20l7 -7q-11 -14 -25.5 -30.5t-32 -30.5t-35.5 -23.5t-36 -9.5q-36 0 -36 40q0 11 2.5 27.5t6 36t8 40t9.5 38.5h-6q-11 -29 -29.5 -61t-43 -59t-54 -44.5t-62.5 -17.5t-46 14.5t-13 46.5q0 17 3.5 35t7.5 36l45 220q1 5 1.5 9.5t0.5 9.5q0 29 -22.5 38.5
t-54.5 13.5l2 9q48 1 76 2t43.5 2t22 1h10.5q-7 -30 -13 -54.5t-10.5 -44.5t-8.5 -38t-7 -35zM304 641l12 10t17 5q10 0 19.5 -6.5t9.5 -20.5q0 -13 -7 -20t-16 -12l-173 -90l-4 7zM434 641l12 10t17 5q10 0 19.5 -6.5t9.5 -20.5q0 -13 -7 -20t-16 -12l-173 -90l-4 7z" />
    <glyph glyph-name="Uogonek" unicode="&#x172;" horiz-adv-x="634" 
d="M582 561q2 12 3 20t1 16q0 31 -19.5 40t-53.5 12l1 9q19 -1 43 -1.5t56 -0.5q36 0 60.5 0.5t43.5 1.5l-1 -9q-20 -2 -36 -5.5t-28 -12.5t-20.5 -25t-13.5 -44l-70 -366q-8 -39 -18.5 -75t-34.5 -64.5t-65 -46.5t-110 -20q-12 -11 -24.5 -25t-23 -30.5t-17 -35t-6.5 -39.5
q0 -32 17 -47t47 -15q20 0 38 6l2 -9q-10 -5 -24 -8t-31 -3t-33.5 3t-30.5 10.5t-22.5 21.5t-8.5 37q0 21 10 40t24.5 36.5t32 32t32.5 25.5q-92 1 -141 40t-49 120q0 22 3 45.5t7 44.5l61 321q2 12 3 20t1 16q0 31 -19.5 40t-51.5 12l2 9q19 0 49 -1t62 -1q36 0 72 1t55 1
l-2 -9q-20 -2 -36 -5.5t-28 -12.5t-20 -25t-14 -44l-63 -325q-5 -27 -8 -50t-3 -43q0 -54 33 -89.5t105 -35.5q56 0 90.5 14.5t55 39.5t30 57.5t16.5 67.5z" />
    <glyph glyph-name="uogonek" unicode="&#x173;" horiz-adv-x="494" 
d="M392 -205q-10 -5 -24 -8t-31 -3t-33.5 3t-30.5 10.5t-22.5 21.5t-8.5 37q0 21 10 41t25.5 37.5t33.5 32t33 25.5q-3 0 -5.5 -0.5t-4.5 -0.5q-36 0 -36 40q0 11 2.5 27.5t6 36t8 40t9.5 38.5h-6q-11 -29 -29.5 -61t-43 -59t-54 -44.5t-62.5 -17.5t-46 14.5t-13 46.5
q0 17 3.5 35t7.5 36l45 220q1 5 1.5 9.5t0.5 9.5q0 29 -22.5 38.5t-54.5 13.5l2 9q48 1 76 2t43.5 2t22 1h10.5q-7 -30 -13 -54.5t-10.5 -44.5t-8.5 -38t-7 -35l-28 -146q-2 -9 -3.5 -21.5t-1.5 -20.5q0 -16 7 -26.5t28 -10.5q31 0 59.5 28t52.5 70t41.5 91.5t26.5 93.5
l23 112h60q-6 -24 -11 -50q-5 -23 -11 -50.5t-11 -56.5q-5 -26 -11 -54t-11 -53q-6 -31 -11.5 -59.5t-5.5 -44.5q0 -11 3 -17.5t11 -6.5q9 0 19.5 5.5t21.5 14t22 18.5t20 20l7 -7q-16 -21 -40 -45.5t-51 -38.5q-12 -10 -26.5 -24.5t-27.5 -32.5t-21.5 -39t-8.5 -45
q0 -32 17 -47t47 -15q20 0 38 6z" />
    <glyph glyph-name="Wcircumflex" unicode="&#x174;" horiz-adv-x="896" 
d="M607 -5l-62 367q-11 60 -18.5 106.5t-11.5 75.5h-2q-8 -16 -16 -32.5t-17.5 -37t-22 -45t-28.5 -57.5l-182 -377h-31l-44 556q-2 27 -5.5 45t-11.5 29t-21.5 16.5t-35.5 8.5l2 8q10 0 24.5 -0.5t30 -1t31 -0.5h27.5h26.5t29 0.5t28 1t23.5 0.5l-2 -8q-40 -5 -59 -13.5
t-19 -28.5q0 -10 0.5 -19t1.5 -20l21 -273q5 -55 7.5 -97t4.5 -80h2q18 38 33.5 71t36.5 75l191 391h23l70 -390q5 -27 8.5 -47.5t6.5 -38t5.5 -34t5.5 -35.5h2q12 29 26.5 66.5t37.5 92.5l118 291q9 23 12 35t3 23q0 10 -6.5 15.5t-16.5 8.5t-22 4t-22 3l1 8q19 -1 46 -1
h47h50t44 1l-1 -8q-41 -5 -62 -23t-37 -57l-239 -575h-31zM463 732l-5 6l120 158h16l61 -158l-7 -5l-71 102z" />
    <glyph glyph-name="wcircumflex" unicode="&#x175;" horiz-adv-x="663" 
d="M415 426q-3 -27 -5 -46t-4 -37t-4.5 -37.5t-5.5 -46.5l-20 -171q-3 -24 -3 -36q0 -23 14 -23q15 0 46 25.5t62 65.5t54.5 89.5t23.5 97.5q0 18 -5 32t-10 26q-4 10 -6.5 18t-2.5 16q0 16 12.5 27.5t32.5 11.5q22 0 30.5 -15.5t8.5 -35.5q0 -37 -14 -81t-37 -88t-52.5 -85
t-61 -72.5t-62.5 -50.5t-57 -19q-25 0 -32.5 13t-7.5 29q0 7 1 20.5t3 29.5t4.5 34t4.5 34l-4 1q-22 -35 -46 -64t-48.5 -51t-48 -34t-44.5 -12q-23 0 -28.5 11.5t-5.5 27.5q0 18 3 42l32 258q2 11 3 22.5t1 18.5t-3 12t-12 5q-11 0 -21.5 -6t-20 -15t-18.5 -19t-16 -18
l-9 8q11 16 25.5 33.5t31 32.5t35 24.5t37.5 9.5q35 0 35 -37q0 -9 -0.5 -21.5t-2.5 -24.5l-34 -267q-2 -14 -2.5 -21.5t-0.5 -14.5q0 -23 14 -23q10 0 29.5 14.5t41.5 38.5t44.5 55.5t39.5 64.5l28 224h58zM296 502l-5 6l120 158h16l61 -158l-7 -5l-71 102z" />
    <glyph glyph-name="Ycircumflex" unicode="&#x176;" horiz-adv-x="578" 
d="M323 96q-2 -12 -3 -21t-1 -16q0 -29 20.5 -38.5t60.5 -11.5l-2 -9h-25t-26 0.5t-31 0.5h-40h-33t-36 -0.5t-35 -0.5h-30l2 9q24 2 41.5 5.5t30.5 12.5t21.5 25t13.5 44l40 207l-105 261q-9 24 -17.5 39.5t-19 25t-24.5 14t-35 6.5l4 9q32 -1 58 -1.5t58 -0.5h30.5h28
t28 0.5t31.5 1.5l-3 -9q-35 -1 -55 -9t-20 -30q0 -14 6.5 -31.5t12.5 -31.5l86 -211l171 236q17 23 21.5 32.5t4.5 17.5q0 13 -15 19t-48 8l2 9q15 0 25.5 -0.5t19.5 -1t19 -0.5h25q29 0 48 0.5t48 1.5l-2 -9q-21 -2 -37 -8t-29.5 -17t-27 -26.5t-29.5 -37.5l-187 -253z
M312 732l-5 6l120 158h16l61 -158l-7 -5l-71 102z" />
    <glyph glyph-name="ycircumflex" unicode="&#x177;" horiz-adv-x="432" 
d="M179 344q11 -66 27.5 -145.5t32.5 -164.5q10 16 29.5 49t38.5 72.5t33 79.5t14 70q0 17 -6 30t-11 24q-5 10 -8.5 20t-3.5 18q-1 17 10.5 29t30.5 12q44 0 44 -52q1 -29 -10.5 -68t-31 -84t-45.5 -93.5t-56 -96.5q-34 -52 -71 -102.5t-75 -90t-75.5 -63.5t-71.5 -24
q-24 0 -38 10.5t-14 30.5q0 17 11.5 28.5t28.5 11.5q11 0 18.5 -5.5t13.5 -11.5q6 -5 12 -9.5t16 -4.5q15 0 36 13.5t44.5 35t46.5 49t41 56.5l-73 361q-6 29 -12.5 43.5t-22.5 14.5q-17 0 -35.5 -18t-36.5 -41l-10 7q7 13 19.5 31t28.5 34t33.5 27t35.5 11q23 0 37.5 -19.5
t24.5 -74.5zM188 502l-5 6l120 158h16l61 -158l-7 -5l-71 102z" />
    <glyph glyph-name="Ydieresis" unicode="&#x178;" horiz-adv-x="578" 
d="M323 96q-2 -12 -3 -21t-1 -16q0 -29 20.5 -38.5t60.5 -11.5l-2 -9h-25t-26 0.5t-31 0.5h-40h-33t-36 -0.5t-35 -0.5h-30l2 9q24 2 41.5 5.5t30.5 12.5t21.5 25t13.5 44l40 207l-105 261q-9 24 -17.5 39.5t-19 25t-24.5 14t-35 6.5l4 9q32 -1 58 -1.5t58 -0.5h30.5h28
t28 0.5t31.5 1.5l-3 -9q-35 -1 -55 -9t-20 -30q0 -14 6.5 -31.5t12.5 -31.5l86 -211l171 236q17 23 21.5 32.5t4.5 17.5q0 13 -15 19t-48 8l2 9q15 0 25.5 -0.5t19.5 -1t19 -0.5h25q29 0 48 0.5t48 1.5l-2 -9q-21 -2 -37 -8t-29.5 -17t-27 -26.5t-29.5 -37.5l-187 -253z
M287 822q0 18 12.5 30.5t30.5 12.5t30.5 -12.5t12.5 -30.5t-12.5 -30.5t-30.5 -12.5t-30.5 12.5t-12.5 30.5zM447 822q0 18 12.5 30.5t30.5 12.5t30.5 -12.5t12.5 -30.5t-12.5 -30.5t-30.5 -12.5t-30.5 12.5t-12.5 30.5z" />
    <glyph glyph-name="Zacute" unicode="&#x179;" horiz-adv-x="537" 
d="M580 642l-483 -624h162q56 0 89 7.5t56 21.5q29 19 46.5 49.5t34.5 73.5h11q-11 -48 -19 -86q-4 -16 -7.5 -31.5t-6 -27.5t-4.5 -19.5l-2 -7.5q-9 1 -25 1.5t-35 0.5h-39.5h-39.5h-316l2 16l478 622h-139q-46 0 -73 -3.5t-47 -9.5q-24 -8 -40.5 -19.5t-28.5 -27.5
t-21 -35.5t-19 -43.5h-11l34 161l1 1q20 -2 57 -3.5t78 -1.5h171q46 0 78 0.5t60 1.5zM436 871l12 10t17 5q10 0 19.5 -6.5t9.5 -20.5q0 -13 -7 -20t-16 -12l-173 -90l-4 7z" />
    <glyph glyph-name="zacute" unicode="&#x17a;" horiz-adv-x="395" 
d="M4 9l302 399h-65q-40 0 -64 -4t-41 -11q-24 -11 -40 -30.5t-30 -45.5h-11q8 26 21 57.5t24 55.5q18 -2 56.5 -3.5t85.5 -1.5h38q28 0 59 0.5t48 1.5v-9q-23 -27 -47 -58.5t-47 -62.5l-155 -206q-14 -19 -29 -39.5t-28 -36.5q16 1 38 1h59q41 0 65 6.5t40 17.5
q19 14 32.5 34.5t25.5 41.5h10q-8 -29 -18 -60.5t-20 -57.5q-22 2 -59 2h-84h-167zM315 641l12 10t17 5q10 0 19.5 -6.5t9.5 -20.5q0 -13 -7 -20t-16 -12l-173 -90l-4 7z" />
    <glyph glyph-name="Zdotaccent" unicode="&#x17b;" horiz-adv-x="537" 
d="M580 642l-483 -624h162q56 0 89 7.5t56 21.5q29 19 46.5 49.5t34.5 73.5h11q-11 -48 -19 -86q-4 -16 -7.5 -31.5t-6 -27.5t-4.5 -19.5l-2 -7.5q-9 1 -25 1.5t-35 0.5h-39.5h-39.5h-316l2 16l478 622h-139q-46 0 -73 -3.5t-47 -9.5q-24 -8 -40.5 -19.5t-28.5 -27.5
t-21 -35.5t-19 -43.5h-11l34 161l1 1q20 -2 57 -3.5t78 -1.5h171q46 0 78 0.5t60 1.5zM325 863q0 18 12.5 30.5t30.5 12.5t30.5 -12.5t12.5 -30.5t-12.5 -30.5t-30.5 -12.5t-30.5 12.5t-12.5 30.5z" />
    <glyph glyph-name="zdotaccent" unicode="&#x17c;" horiz-adv-x="395" 
d="M4 9l302 399h-65q-40 0 -64 -4t-41 -11q-24 -11 -40 -30.5t-30 -45.5h-11q8 26 21 57.5t24 55.5q18 -2 56.5 -3.5t85.5 -1.5h38q28 0 59 0.5t48 1.5v-9q-23 -27 -47 -58.5t-47 -62.5l-155 -206q-14 -19 -29 -39.5t-28 -36.5q16 1 38 1h59q41 0 65 6.5t40 17.5
q19 14 32.5 34.5t25.5 41.5h10q-8 -29 -18 -60.5t-20 -57.5q-22 2 -59 2h-84h-167zM234 633q0 18 12.5 30.5t30.5 12.5t30.5 -12.5t12.5 -30.5t-12.5 -30.5t-30.5 -12.5t-30.5 12.5t-12.5 30.5z" />
    <glyph glyph-name="Zcaron" unicode="&#x17d;" horiz-adv-x="537" 
d="M580 642l-483 -624h162q56 0 89 7.5t56 21.5q29 19 46.5 49.5t34.5 73.5h11q-11 -48 -19 -86q-4 -16 -7.5 -31.5t-6 -27.5t-4.5 -19.5l-2 -7.5q-9 1 -25 1.5t-35 0.5h-39.5h-39.5h-316l2 16l478 622h-139q-46 0 -73 -3.5t-47 -9.5q-24 -8 -40.5 -19.5t-28.5 -27.5
t-21 -35.5t-19 -43.5h-11l34 161l1 1q20 -2 57 -3.5t78 -1.5h171q46 0 78 0.5t60 1.5zM462 894l5 -6l-120 -158h-16l-61 158l7 5l71 -102z" />
    <glyph glyph-name="zcaron" unicode="&#x17e;" horiz-adv-x="395" 
d="M4 9l302 399h-65q-40 0 -64 -4t-41 -11q-24 -11 -40 -30.5t-30 -45.5h-11q8 26 21 57.5t24 55.5q18 -2 56.5 -3.5t85.5 -1.5h38q28 0 59 0.5t48 1.5v-9q-23 -27 -47 -58.5t-47 -62.5l-155 -206q-14 -19 -29 -39.5t-28 -36.5q16 1 38 1h59q41 0 65 6.5t40 17.5
q19 14 32.5 34.5t25.5 41.5h10q-8 -29 -18 -60.5t-20 -57.5q-22 2 -59 2h-84h-167zM365 664l5 -6l-120 -158h-16l-61 158l7 5l71 -102z" />
    <glyph glyph-name="uni0186" unicode="&#x186;" horiz-adv-x="577" 
d="M309 672q113 0 174.5 -62t61.5 -200q0 -75 -21 -150t-62.5 -135t-103.5 -98t-144 -38q-46 0 -78 12.5t-52 29.5t-30.5 34t-13.5 25l13 6q7 -13 19.5 -27t31.5 -25.5t43.5 -19t54.5 -7.5q63 0 111.5 33.5t81.5 87t50.5 121.5t17.5 137q0 57 -10.5 103.5t-31.5 80.5
t-52 52.5t-72 18.5q-40 0 -71.5 -16.5t-56 -43t-42 -60t-28.5 -67.5h-14l43 168q5 4 12 4q2 -2 6 -2q29 11 69 24.5t94 13.5z" />
    <glyph glyph-name="uni018F" unicode="&#x18f;" horiz-adv-x="649" 
d="M114 516q19 30 44 58t58 50t75 35t95 13q117 0 175.5 -66t58.5 -190q0 -76 -23 -152.5t-68 -137.5t-112 -99t-155 -38q-55 0 -94.5 14t-64.5 40t-36.5 61.5t-11.5 79.5q0 21 1.5 41t6.5 38l456 -7q8 32 14 73t6 78q0 113 -51 170.5t-146 57.5q-40 0 -73.5 -12.5
t-60.5 -31t-48 -41t-37 -43.5zM142 234q-2 -10 -6.5 -34t-4.5 -50q0 -29 8 -55t25 -45.5t42.5 -31t61.5 -11.5q43 0 81 18.5t70 50t56 74t38 89.5z" />
    <glyph glyph-name="uni0190" unicode="&#x190;" horiz-adv-x="439" 
d="M331 629q-36 0 -62 -15t-42 -39t-23.5 -53.5t-7.5 -58.5q0 -67 35.5 -95t107.5 -28h4l-4 -17q-34 0 -69 -3.5t-68 -19.5q-45 -23 -64.5 -63.5t-19.5 -88.5q0 -36 12 -61.5t31.5 -42t45.5 -24t55 -7.5q37 0 65.5 9t45.5 17l6 -11q-23 -14 -60.5 -27t-93.5 -13
q-88 0 -133 42.5t-45 111.5q0 45 17 81t46 60.5t68 38t83 15.5v1q-24 2 -47.5 11t-42 24.5t-30.5 38.5t-12 53q0 45 15 79t42 56.5t64 33.5t81 11q72 0 107 -23.5t35 -55.5q0 -17 -9.5 -28.5t-32.5 -11.5q-18 0 -26 7.5t-8 19.5q0 10 2 17t2 15q0 44 -70 44z" />
    <glyph glyph-name="florin" unicode="&#x192;" 
d="M137 407l4 19l82 -1q9 43 22 91t35 87.5t56 65.5t85 26q55 0 79.5 -19.5t24.5 -45.5q0 -36 -37 -36q-34 0 -34 28q0 5 0.5 11t0.5 11q0 14 -7.5 25t-33.5 11q-31 0 -52 -21t-35 -53t-23 -72t-16 -77l-6 -32q29 0 60.5 0.5t60.5 0.5l-5 -19h-119l-80 -403q-9 -48 -24 -90
t-36 -73.5t-50 -49.5t-67 -18q-51 0 -71.5 18.5t-20.5 42.5q0 35 37 35q34 0 34 -29q0 -4 -0.5 -12t-0.5 -12q0 -10 4.5 -21t25.5 -11q24 0 40.5 16.5t28.5 43t20.5 61t15.5 70.5l84 432h-82z" />
    <glyph glyph-name="uni019D" unicode="&#x19d;" horiz-adv-x="656" 
d="M100 5q-8 -41 -17.5 -82t-25.5 -74t-41.5 -54t-65.5 -21q-48 0 -68.5 18.5t-20.5 43.5q0 36 39 36q16 0 26 -7t10 -21q0 -8 -0.5 -12t-0.5 -12q0 -10 4 -19.5t24 -9.5q22 0 38 14.5t28 40.5t20.5 60.5t16.5 75.5l113 576q2 12 3 20t1 16q0 31 -19.5 40t-51.5 12l2 12
q19 0 40.5 -1t47.5 -1h16.5t9 0.5t6 1t8.5 0.5l275 -529h2q1 7 4 23t6.5 35.5t7.5 40.5t8 40l57 290q2 12 3 20t1 16q0 31 -19.5 40t-53.5 12l2 12q19 -1 40.5 -1.5t53.5 -0.5q36 0 59 0.5t42 1.5l-2 -12q-20 -2 -36 -5.5t-28 -12.5t-20.5 -25t-13.5 -44l-110 -569h-12
l-254 491l-26.5 53t-17.5 36h-2q-2 -16 -6.5 -38.5l-12.5 -62.5z" />
    <glyph glyph-name="uni019F" unicode="&#x19f;" horiz-adv-x="678" 
d="M653 411q0 -32 -6.5 -75.5t-21.5 -90.5t-40.5 -93t-64.5 -82t-92.5 -58.5t-123.5 -22.5q-62 0 -106.5 17t-73 50t-42 81t-13.5 110q0 38 7.5 84.5t24.5 94t44 92t65.5 78.5t89.5 55t117 21q115 0 175.5 -66.5t60.5 -194.5zM306 7q61 0 105.5 30.5t75 78t49.5 104
t28 108.5h-408q-9 -57 -9 -101q0 -41 7.5 -80.5t26 -70.5t49 -50t76.5 -19zM575 436q0 42 -8.5 81t-28 69t-50 48t-73.5 18q-56 0 -98.5 -28t-73.5 -71.5t-51 -97t-31 -105.5h407q4 25 5.5 47t1.5 39z" />
    </font>
</defs>
</svg>
